<?xml version="1.0" standalone="no"?>
<!DOCTYPE svg PUBLIC "-//W3C//DTD SVG 1.1//EN" "http://www.w3.org/Graphics/SVG/1.1/DTD/svg11.dtd" >
<svg xmlns="http://www.w3.org/2000/svg">
<metadata>Generated by IcoMoon</metadata>
<defs>
<font id="cartzilla-icons" horiz-adv-x="1024">
<font-face units-per-em="1024" ascent="960" descent="-64" />
<missing-glyph horiz-adv-x="1024" />
<glyph unicode="&#x20;" horiz-adv-x="512" d="" />
<glyph unicode="&#xe900;" glyph-name="add-circle" d="M512 938.667c-281.6 0-512-230.4-512-512s230.4-512 512-512 512 230.4 512 512c0 281.6-230.4 512-512 512zM512-17.066c-243.2 0-443.733 200.533-443.733 443.733s200.533 443.733 443.733 443.733 443.733-200.533 443.733-443.733-200.533-443.733-443.733-443.733v0zM699.733 448h-140.8v140.8c0 21.333-17.067 34.133-34.133 34.133s-34.133-17.067-34.133-34.133v-140.8h-140.8c-21.333 0-34.133-17.067-34.133-34.133s17.067-34.133 34.133-34.133h140.8v-140.8c0-21.333 17.067-34.133 34.133-34.133s34.133 17.067 34.133 34.133v140.8h140.8c21.333 0 34.133 17.067 34.133 34.133s-17.067 34.133-34.133 34.133z" />
<glyph unicode="&#xe901;" glyph-name="add-document" d="M861.867 371.2v234.667c0 21.333-4.267 46.933-17.067 64 0 4.267-4.267 8.533-8.533 8.533l-170.667 200.533c-21.333 38.4-59.733 59.733-102.4 59.733h-392.533c-72.533 0-128-55.467-128-128v-716.8c0-72.533 55.467-128 128-128h426.667c106.667-81.067 260.267-64 341.333 42.667s64 260.267-42.667 341.333c-12.8 8.533-21.333 17.067-34.133 21.333zM119.467 93.867v716.8c0 29.867 21.333 51.2 51.2 51.2h392.533c17.067 0 34.133-8.533 42.667-25.6l170.667-204.8c4.267-8.533 8.533-17.067 8.533-25.6v-209.067c-12.8 4.267-25.6 4.267-38.4 4.267-132.267 0-243.2-110.933-243.2-243.2 0-38.4 8.533-81.067 29.867-115.2h-362.667c-29.867 0-51.2 21.333-51.2 51.2zM746.667-8.533c-93.867 0-166.4 72.533-166.4 166.4s72.533 166.4 166.4 166.4 166.4-72.533 166.4-166.4-72.533-166.4-166.4-166.4v0zM823.467 196.267h-38.4v38.4c0 21.333-17.067 38.4-38.4 38.4s-38.4-17.067-38.4-38.4v-38.4h-38.4c-21.333 0-38.4-17.067-38.4-38.4s17.067-38.4 38.4-38.4h38.4v-38.4c0-21.333 17.067-38.4 38.4-38.4s38.4 17.067 38.4 38.4v0 38.4h38.4c21.333 0 38.4 17.067 38.4 38.4s-17.067 38.4-38.4 38.4z" />
<glyph unicode="&#xe902;" glyph-name="add-location" d="M644.267 567.467h-93.867v93.867c0 21.333-17.067 34.133-34.133 34.133s-34.133-17.067-34.133-34.133v-93.867h-93.867c-21.333 0-34.133-17.067-34.133-34.133 0-21.333 17.067-34.133 34.133-34.133h93.867v-93.867c0-21.333 17.067-34.133 34.133-34.133s34.133 17.067 34.133 34.133v93.867h93.867c21.333 0 34.133 17.067 34.133 34.133s-17.067 34.133-34.133 34.133zM516.267 938.667c-230.4 0-430.933-196.267-430.933-418.133 4.267-68.267 25.6-136.533 55.467-192 0 0 0-4.267 4.267-4.267 4.267-4.267 64-98.133 132.267-192 132.267-179.2 187.733-213.333 238.933-213.333s106.667 34.133 238.933 213.333c68.267 93.867 128 187.733 132.267 192 0 0 4.267 4.267 4.267 4.267 34.133 59.733 51.2 128 55.467 192 0 221.867-200.533 418.133-430.933 418.133zM827.733 358.4c0 0-238.933-371.2-311.467-371.2s-311.467 371.2-311.467 371.2c-29.867 51.2-42.667 106.667-46.933 162.133 0 187.733 166.4 349.867 362.667 349.867s362.667-162.133 362.667-349.867c-12.8-59.733-25.6-115.2-55.467-162.133z" />
<glyph unicode="&#xe903;" glyph-name="add" d="M1024 426.667c0-21.333-17.067-38.4-38.4-38.4h-435.2v-435.2c0-21.333-17.067-38.4-38.4-38.4s-38.4 17.067-38.4 38.4v435.2h-435.2c-21.333 0-38.4 17.067-38.4 38.4s17.067 38.4 38.4 38.4h435.2v435.2c0 21.333 17.067 38.4 38.4 38.4s38.4-17.067 38.4-38.4v-435.2h435.2c21.333 0 38.4-17.067 38.4-38.4z" />
<glyph unicode="&#xe904;" glyph-name="announcement" d="M512 938.667c-281.6 0-512-230.4-512-512s230.4-512 512-512 512 230.4 512 512v0c0 281.6-230.4 512-512 512zM512-12.8c-243.2 0-439.467 196.267-439.467 439.467s196.267 439.467 439.467 439.467 439.467-196.267 439.467-439.467-196.267-439.467-439.467-439.467v0zM524.8 729.6c-21.333 0-38.4-17.067-38.4-38.4v-341.333c0-21.333 17.067-38.4 38.4-38.4s38.4 17.067 38.4 38.4v341.333c-4.267 25.6-17.067 38.4-38.4 38.4zM524.8 256c-21.333 0-38.4-17.067-38.4-38.4s17.067-38.4 38.4-38.4 38.4 17.067 38.4 38.4c-4.267 21.333-17.067 38.4-38.4 38.4z" />
<glyph unicode="&#xe905;" glyph-name="arrow-down-circle" d="M512-85.333c281.6 0 512 230.4 512 512s-230.4 512-512 512-512-230.4-512-512c0-281.6 230.4-512 512-512zM512 870.4c243.2 0 443.733-196.267 443.733-443.733s-200.533-443.733-443.733-443.733-443.733 200.533-443.733 443.733 200.533 443.733 443.733 443.733v0zM473.6 285.867c0 0 0 0 0 0 4.267 0 4.267 0 0 0 4.267-4.267 4.267-4.267 8.533-4.267 4.267-4.267 8.533-4.267 12.8-4.267s8.533 0 12.8 0c4.267 0 8.533 4.267 12.8 4.267 0 0 4.267 0 4.267 4.267 0 0 0 0 0 0s0 0 0 0l174.933 187.733c12.8 12.8 12.8 34.133 0 51.2-8.533 4.267-17.067 8.533-25.6 8.533s-17.067-4.267-25.6-12.8l-149.333-157.867-149.333 157.867c-4.267 8.533-12.8 12.8-25.6 12.8-8.533 0-17.067-4.267-25.6-8.533-12.8-12.8-12.8-34.133 0-51.2l174.933-187.733z" />
<glyph unicode="&#xe906;" glyph-name="arrow-down" d="M12.8 644.267c-17.067 17.067-17.067 42.667 0 59.733s42.667 17.067 59.733 0c0 0 0 0 0 0l448-456.533 430.933 456.533c17.067 17.067 42.667 17.067 59.733 0 0 0 0 0 0 0 17.067-17.067 17.067-42.667 0-59.733l-490.667-507.733-507.733 507.733z" />
<glyph unicode="&#xe907;" glyph-name="arrow-left-circle" d="M512 938.667c-281.6 0-512-230.4-512-512s230.4-512 512-512 512 230.4 512 512c0 281.6-230.4 512-512 512zM512-17.066c-243.2 0-443.733 200.533-443.733 443.733s200.533 443.733 443.733 443.733 443.733-200.533 443.733-443.733-200.533-443.733-443.733-443.733v0zM477.867 430.934l162.133 162.133c12.8 12.8 12.8 34.133 0 51.2-12.8 12.8-34.133 12.8-51.2 0 0 0 0 0 0 0l-209.067-209.067 213.333-213.333c12.8-12.8 34.133-12.8 51.2 0 12.8 12.8 12.8 34.133 0 46.933l-166.4 162.133z" />
<glyph unicode="&#xe908;" glyph-name="arrow-left" d="M721.067-72.533c17.067-17.067 42.667-17.067 59.733 0s17.067 42.667 0 59.733c0 0 0 0 0 0l-452.267 448 452.267 430.933c17.067 17.067 17.067 42.667 0 59.733 0 0 0 0 0 0-17.067 17.067-42.667 17.067-59.733 0l-507.733-490.667 507.733-507.733z" />
<glyph unicode="&#xe909;" glyph-name="arrow-right-circle" d="M512 938.667c-281.6 0-512-230.4-512-512s230.4-512 512-512 512 230.4 512 512c0 281.6-230.4 512-512 512zM512-17.066c-243.2 0-443.733 200.533-443.733 443.733s200.533 443.733 443.733 443.733 443.733-200.533 443.733-443.733-200.533-443.733-443.733-443.733v0zM469.333 640c-12.8 12.8-34.133 12.8-51.2 0-12.8-12.8-12.8-34.133 0-46.933l157.867-157.867-157.867-157.867c-12.8-12.8-12.8-34.133 0-51.2 12.8-12.8 34.133-12.8 46.933 0l204.8 204.8-51.2 51.2-149.333 157.867z" />
<glyph unicode="&#xe90a;" glyph-name="arrow-right" d="M328.533-72.533c-17.067-17.067-42.667-17.067-59.733 0s-17.067 42.667 0 59.733c0 0 0 0 0 0l456.533 448-456.533 430.933c-17.067 17.067-17.067 42.667 0 59.733 0 0 0 0 0 0 17.067 17.067 42.667 17.067 59.733 0l507.733-490.667-507.733-507.733z" />
<glyph unicode="&#xe90b;" glyph-name="arrow-up-circle" d="M512 938.667c-281.6 0-512-230.4-512-512s230.4-512 512-512 512 230.4 512 512c0 281.6-230.4 512-512 512zM512-17.066c-243.2 0-443.733 200.533-443.733 443.733s200.533 443.733 443.733 443.733 443.733-200.533 443.733-443.733-200.533-443.733-443.733-443.733v0zM550.4 567.467c0 0 0 0 0 0-4.267 0-4.267 0 0 0-4.267 4.267-4.267 4.267-8.533 4.267-4.267 4.267-8.533 4.267-12.8 4.267s-8.533 0-12.8 0c-4.267 0-8.533-4.267-12.8-4.267 0 0-4.267 0-4.267-4.267 0 0 0 0 0 0s0 0 0 0l-174.933-187.733c-12.8-12.8-12.8-34.133 0-51.2 8.533-4.267 17.067-8.533 25.6-8.533s17.067 4.267 25.6 12.8l149.333 157.867 149.333-157.867c8.533-8.533 17.067-12.8 25.6-12.8s17.067 4.267 25.6 8.533c12.8 12.8 12.8 34.133 0 51.2l-174.933 187.733z" />
<glyph unicode="&#xe90c;" glyph-name="arrow-up" d="M1011.2 209.067c17.067-17.067 17.067-42.667 0-59.733s-42.667-17.067-59.733 0c0 0 0 0 0 0l-448 452.267-430.933-452.267c-17.067-17.067-42.667-17.067-59.733 0 0 0 0 0 0 0-17.067 17.067-17.067 42.667 0 59.733l490.667 507.733 507.733-507.733z" />
<glyph unicode="&#xe90d;" glyph-name="arrows-horizontal" d="M1024 209.067c4.267 12.8 0 29.867-12.8 42.667l-196.267 170.667c-17.067 17.067-46.933 17.067-68.267 0-17.067-17.067-21.333-46.933 0-64 0 0 0 0 0 0l119.467-106.667h-695.467c-25.6 0-46.933-21.333-46.933-46.933 0 0 0 0 0 0 0-25.6 38.4-46.933 64-46.933h686.933l-132.267-106.667c-17.067-17.067-21.333-46.933-4.267-64 0 0 0 0 0 0 8.533-8.533 21.333-17.067 34.133-17.067s21.333 4.267 34.133 12.8l204.8 187.733c8.533 8.533 12.8 21.333 12.8 38.4zM0 631.467c-4.267-12.8 0-29.867 12.8-42.667l196.267-170.667c17.067-17.067 46.933-21.333 68.267 0 17.067 17.067 21.333 46.933 0 64 0 0 0 0 0 0l-115.2 106.667h695.467c25.6 0 46.933 21.333 46.933 46.933s-21.333 46.933-46.933 46.933h-704l132.267 106.667c17.067 17.067 21.333 46.933 4.267 64 0 0 0 0 0 0-21.333 21.333-51.2 21.333-68.267 4.267l-209.067-183.467c-8.533-12.8-12.8-25.6-12.8-42.667v0z" />
<glyph unicode="&#xe90e;" glyph-name="arrows-vertical" d="M320-85.333c12.8-4.267 29.867 0 42.667 12.8l170.667 196.267c17.067 17.067 17.067 46.933 0 68.267-17.067 17.067-46.933 21.333-64 4.267 0 0 0 0 0 0l-106.667-119.467v691.2c0 25.6-21.333 46.933-46.933 46.933s-46.933-38.4-46.933-64v-682.667l-106.667 132.267c-17.067 17.067-46.933 21.333-64 4.267 0 0 0 0 0 0-8.533-8.533-12.8-21.333-12.8-34.133s4.267-21.333 12.8-29.867l183.467-204.8c8.533-17.067 21.333-21.333 38.4-21.333zM742.4 938.667c-12.8 4.267-29.867 0-42.667-12.8l-170.667-196.267c-17.067-17.067-17.067-46.933 0-68.267 17.067-17.067 46.933-21.333 64-4.267 0 0 0 0 0 0l106.667 119.467v-695.467c0-25.6 21.333-46.933 46.933-46.933s46.933 21.333 46.933 46.933v704l102.4-132.267c17.067-17.067 46.933-21.333 64-4.267 0 0 0 0 0 0 17.067 12.8 21.333 25.6 21.333 38.4s-4.267 21.333-12.8 34.133l-187.733 204.8c-8.533 8.533-25.6 12.8-38.4 12.8v0z" />
<glyph unicode="&#xe90f;" glyph-name="bag" d="M870.4 733.867h-136.533c-12.8 106.667-115.2 204.8-221.867 204.8s-209.067-98.133-226.133-204.8h-132.267c-34.133 4.267-64-25.6-68.267-59.733 0 0 0-4.267 0-4.267v-678.4c0-38.4 29.867-68.267 68.267-68.267h716.8c38.4 0 68.267 29.867 68.267 68.267v678.4c0 38.4-29.867 64-68.267 64 4.267 0 4.267 0 0 0zM512 870.4c68.267 0 140.8-68.267 157.867-136.533h-315.733c17.067 68.267 89.6 136.533 157.867 136.533zM870.4-8.533h-716.8v674.133h136.533v-55.467c0-17.067 17.067-34.133 34.133-34.133s34.133 17.067 34.133 34.133v55.467h315.733v-55.467c0-17.067 17.067-34.133 34.133-34.133s34.133 17.067 34.133 34.133v55.467h136.533v-674.133z" />
<glyph unicode="&#xe910;" glyph-name="basket" d="M452.267 119.467c17.067 0 34.133 17.067 34.133 34.133 0 0 0 0 0 0v162.133c0 17.067-17.067 34.133-34.133 34.133s-34.133-17.067-34.133-34.133v-162.133c0-17.067 12.8-34.133 34.133-34.133 0 0 0 0 0 0zM567.467 119.467c17.067 0 34.133 17.067 34.133 34.133 0 0 0 0 0 0v162.133c0 17.067-17.067 34.133-34.133 34.133s-34.133-17.067-34.133-34.133v-162.133c0-17.067 12.8-34.133 34.133-34.133 0 0 0 0 0 0zM682.667 119.467c17.067 0 34.133 17.067 34.133 34.133 0 0 0 0 0 0v162.133c0 17.067-17.067 34.133-34.133 34.133s-34.133-17.067-34.133-34.133v-162.133c0-17.067 12.8-34.133 34.133-34.133 0 0 0 0 0 0zM337.067 119.467c17.067 0 34.133 17.067 34.133 34.133 0 0 0 0 0 0v162.133c0 17.067-17.067 34.133-34.133 34.133s-34.133-17.067-34.133-34.133v-162.133c0-17.067 17.067-34.133 34.133-34.133 0 0 0 0 0 0zM947.2 665.6h-42.667c0 0 0 0 0 0l-226.133 217.6c-12.8 12.8-34.133 12.8-46.933 0 0 0 0 0 0 0-12.8-12.8-12.8-34.133 0-51.2l179.2-170.667h-597.333l179.2 170.667c12.8 12.8 12.8 34.133 0 51.2-12.8 12.8-34.133 12.8-46.933 0 0 0 0 0 0 0l-226.133-217.6c0 0 0 0 0 0h-42.667c-38.4 0-68.267-34.133-68.267-72.533 0 0 0 0 0 0v-89.6c0-38.4 29.867-68.267 68.267-68.267 0 0 0 0 0 0v0c17.067-89.6 68.267-379.733 68.267-379.733 4.267-29.867 29.867-55.467 64-55.467h597.333c34.133 0 59.733 25.6 68.267 55.467 0 0 51.2 268.8 68.267 379.733v0c38.4 0 68.267 29.867 68.267 68.267 0 0 0 0 0 0v89.6c4.267 38.4-25.6 72.533-64 72.533 0 0 0 0 0 0zM810.667 68.267h-597.333l-68.267 366.933h733.867l-68.267-366.933zM947.2 503.467h-874.667v93.867h874.667v-93.867z" />
<glyph unicode="&#xe911;" glyph-name="behance" d="M422.4 456.534c21.333 12.8 38.4 21.333 46.933 34.133 21.333 21.333 29.867 55.467 29.867 93.867s-8.533 68.267-29.867 93.867c-34.133 42.667-85.333 64-162.133 68.267h-307.2v-622.933h285.867c34.133 0 64 4.267 89.6 8.533s51.2 17.067 72.533 29.867c17.067 12.8 34.133 29.867 46.933 51.2 17.067 29.867 29.867 64 29.867 98.133s-8.533 68.267-25.6 89.6c-21.333 25.6-46.933 42.667-76.8 55.467zM128 640h136.533c29.867 0 55.467-4.267 76.8-8.533 21.333-8.533 34.133-29.867 34.133-59.733 0-25.6-8.533-42.667-25.6-55.467-17.067-8.533-38.4-17.067-68.267-17.067h-153.6v140.8zM345.6 243.2c-17.067-8.533-38.4-12.8-64-12.8h-153.6v166.4h157.867c25.6 0 46.933-4.267 64-8.533 21.333-12.8 34.133-34.133 34.133-68.267 0-38.4-12.8-64-38.4-76.8zM652.8 716.8h273.067v-76.8h-273.067v76.8zM1019.733 409.6c-4.267 34.133-17.067 68.267-38.4 93.867-21.333 29.867-46.933 55.467-81.067 68.267-29.867 17.067-68.267 25.6-106.667 25.6-68.267 0-123.733-21.333-166.4-64s-64-102.4-64-183.467c0-85.333 25.6-145.067 72.533-183.467s102.4-55.467 166.4-55.467c76.8 0 132.267 21.333 174.933 68.267 25.6 29.867 42.667 55.467 46.933 85.333h-123.733c-8.533-12.8-17.067-25.6-25.6-29.867-17.067-12.8-38.4-21.333-68.267-21.333-25.6 0-46.933 4.267-68.267 17.067-29.867 17.067-46.933 51.2-46.933 98.133h341.333c-8.533 29.867-8.533 59.733-12.8 81.067zM686.933 401.067c4.267 29.867 17.067 55.467 34.133 72.533s42.667 25.6 72.533 25.6c29.867 0 51.2-8.533 72.533-25.6s29.867-42.667 34.133-72.533h-213.333z" />
<glyph unicode="&#xe912;" glyph-name="bell" d="M917.333 153.6c-8.533 8.533-89.6 85.333-89.6 337.067 0 81.067-51.2 179.2-106.667 243.2-29.867 34.133-64 59.733-106.667 81.067 0 0 0 4.267 0 4.267-4.267 72.533-64 128-132.267 123.733-64 0-119.467-55.467-123.733-119.467 0 0 0-4.267 0-4.267-38.4-21.333-76.8-51.2-102.4-85.333-55.467-68.267-85.333-157.867-85.333-243.2 0-251.733-76.8-324.267-89.6-337.067-25.6-12.8-42.667-42.667-34.133-72.533s34.133-51.2 68.267-51.2h209.067c0-21.333 12.8-38.4 25.6-55.467 76.8-81.067 204.8-85.333 285.867-8.533 4.267 4.267 8.533 8.533 8.533 8.533 12.8 17.067 25.6 34.133 29.867 51.2h209.067c29.867 0 59.733 21.333 68.267 51.2 12.8 34.133-4.267 64-34.133 76.8zM490.667 878.934c25.6 0 46.933-17.067 55.467-38.4-17.067 4.267-38.4-8.533-55.467-8.533s-38.4 12.8-55.467 8.533c8.533 21.333 29.867 34.133 55.467 38.4zM490.667 780.8c149.333 0 273.067-162.133 273.067-290.133 0-76.8 12.8-153.6 34.133-226.133h-588.8c21.333 72.533 34.133 149.333 34.133 226.133-4.267 132.267 98.133 290.133 247.467 290.133zM499.2-12.8c-34.133 0-55.467 17.067-81.067 42.667h162.133c-17.067-25.6-46.933-38.4-81.067-42.667zM119.467 102.4c0 0 34.133 21.333 68.267 93.867h631.467c29.867-72.533 68.267-93.867 68.267-93.867h-768z" />
<glyph unicode="&#xe913;" glyph-name="bluetooth" d="M814.933 221.867l-187.733 192 192 196.267c12.8 17.067 12.8 38.4 0 55.467l-238.933 260.267c-12.8 12.8-25.6 17.067-42.667 8.533-12.8 0-21.333-12.8-17.067-21.333 0 0 0 0 0 0v-388.267l-256 238.933c-17.067 12.8-38.4 12.8-55.467 0 0 0 0 0 0 0-17.067-17.067-17.067-38.4 0-55.467l302.933-294.4v-25.6l-298.667-273.067c-17.067-17.067-17.067-38.4 0-55.467 12.8-17.067 38.4-17.067 55.467 0 0 0 0 0 0 0l243.2 221.867v-311.467c0-17.067 4.267-42.667 17.067-46.933 4.267 0 8.533-4.267 17.067-4.267s17.067 4.267 25.6 8.533l238.933 234.667c8.533 8.533 12.8 17.067 12.8 29.867 4.267 12.8 0 21.333-8.533 29.867zM593.067 776.534l145.067-140.8-145.067-145.067v285.867zM593.067 51.2v285.867l145.067-140.8-145.067-145.067z" />
<glyph unicode="&#xe914;" glyph-name="book" d="M268.8 934.4l-157.867-162.133v-738.133c0-64 51.2-115.2 115.2-115.2h482.133c25.6 4.267 46.933 12.8 68.267 21.333 0 0 162.133 115.2 162.133 183.467v810.667h-669.867zM870.4 866.134v-712.533c0-29.867-46.933-68.267-46.933-68.267v755.2h-546.133c8.533 12.8 25.6 21.333 42.667 21.333h550.4zM499.2 772.267h93.867v-204.8l-46.933 42.667-46.933-46.933v209.067zM226.133-12.8c-25.6 0-46.933 21.333-46.933 46.933v691.2c0 25.6 21.333 46.933 46.933 46.933h209.067v-345.6l115.2 93.867 115.2-93.867v345.6h93.867v-738.133c0-25.6-21.333-46.933-46.933-46.933h-486.4z" />
<glyph unicode="&#xe915;" glyph-name="bookmark" d="M849.067 861.867v-866.133l-337.067 337.067-337.067-337.067v866.133h674.133zM849.067 934.4h-674.133c-38.4 0-72.533-34.133-72.533-72.533v-866.133c0-29.867 17.067-55.467 42.667-68.267 8.533-4.267 17.067-4.267 25.6-4.267 17.067 0 38.4 8.533 51.2 21.333l285.867 290.133 285.867-290.133c12.8-12.8 29.867-21.333 51.2-21.333 8.533 0 17.067 0 25.6 4.267 25.6 12.8 42.667 38.4 42.667 68.267v866.133c8.533 38.4-25.6 72.533-64 72.533v0z" />
<glyph unicode="&#xe916;" glyph-name="briefcase" d="M951.467 729.6h-217.6v76.8c0 38.4-34.133 72.533-72.533 72.533h-294.4c-38.4 0-72.533-34.133-72.533-72.533v-72.533h-221.867c-38.4-4.267-72.533-34.133-72.533-76.8v0-610.133c0-38.4 34.133-72.533 72.533-72.533v0h878.933c38.4 0 72.533 34.133 72.533 72.533v0 610.133c0 42.667-34.133 72.533-72.533 72.533v0zM366.933 806.4h294.4v-72.533h-294.4v72.533zM951.467 657.067v-183.467c-4.267 0-12.8 0-17.067-4.267-98.133-46.933-200.533-81.067-307.2-102.4-12.8 29.867-38.4 46.933-68.267 46.933h-98.133c-29.867 0-59.733-21.333-68.267-51.2-106.667 21.333-209.067 59.733-307.2 106.667-4.267 0-8.533 4.267-12.8 4.267v183.467h878.933zM558.933 341.334v-72.533h-98.133v72.533h98.133zM72.533 46.934v345.6c102.4-46.933 209.067-81.067 315.733-102.4v-21.333c0-38.4 34.133-72.533 72.533-72.533h98.133c38.4 0 72.533 34.133 72.533 72.533v25.6c110.933 21.333 217.6 55.467 315.733 106.667v-354.133h-874.667z" />
<glyph unicode="&#xe917;" glyph-name="calculator" d="M866.133 938.667h-708.267c-38.4 0-68.267-29.867-68.267-68.267v-887.467c0-38.4 29.867-68.267 68.267-68.267h712.533c38.4 0 68.267 29.867 68.267 68.267v887.467c-4.267 38.4-34.133 68.267-72.533 68.267zM866.133-17.066h-708.267v887.467h712.533v-887.467zM268.8 648.534h490.667c38.4 0 68.267 29.867 68.267 68.267v42.667c0 38.4-29.867 68.267-68.267 68.267h-490.667c-38.4 0-68.267-29.867-68.267-68.267v-42.667c0-38.4 29.867-68.267 68.267-68.267zM268.8 759.467h490.667v-42.667h-490.667v42.667zM268.8 426.667h42.667c38.4 0 68.267 29.867 68.267 68.267v42.667c0 38.4-29.867 68.267-68.267 68.267h-42.667c-38.4 0-68.267-29.867-68.267-68.267v-42.667c0-38.4 29.867-68.267 68.267-68.267zM268.8 537.6h42.667v-42.667h-42.667v42.667zM533.333 605.867h-42.667c-38.4 0-68.267-29.867-68.267-68.267v-42.667c0-38.4 29.867-68.267 68.267-68.267h42.667c38.4 0 68.267 29.867 68.267 68.267v42.667c0 38.4-29.867 68.267-68.267 68.267zM533.333 494.934h-42.667v42.667h42.667v-42.667zM755.2 605.867h-42.667c-38.4 0-68.267-29.867-68.267-68.267v-42.667c0-38.4 29.867-68.267 68.267-68.267h42.667c38.4 0 68.267 29.867 68.267 68.267v42.667c0 38.4-29.867 68.267-68.267 68.267zM755.2 494.934h-42.667v42.667h42.667v-42.667zM268.8 226.134h42.667c38.4 0 68.267 29.867 68.267 68.267v42.667c0 38.4-29.867 68.267-68.267 68.267h-42.667c-38.4 0-68.267-29.867-68.267-68.267v-42.667c0-38.4 29.867-68.267 68.267-68.267zM268.8 337.067h42.667v-42.667h-42.667v42.667zM533.333 405.334h-42.667c-38.4 0-68.267-29.867-68.267-68.267v-42.667c0-38.4 29.867-68.267 68.267-68.267h42.667c38.4 0 68.267 29.867 68.267 68.267v42.667c0 38.4-29.867 68.267-68.267 68.267zM533.333 294.4h-42.667v42.667h42.667v-42.667zM755.2 405.334h-42.667c-38.4 0-68.267-29.867-68.267-68.267v-42.667c0-38.4 29.867-68.267 68.267-68.267h42.667c38.4 0 68.267 29.867 68.267 68.267v42.667c0 38.4-29.867 68.267-68.267 68.267zM755.2 294.4h-42.667v42.667h42.667v-42.667zM268.8 25.6h42.667c38.4 0 68.267 29.867 68.267 68.267v42.667c0 38.4-29.867 68.267-68.267 68.267h-42.667c-38.4 0-68.267-29.867-68.267-68.267v-42.667c0-38.4 29.867-68.267 68.267-68.267zM268.8 136.534h42.667v-42.667h-42.667v42.667zM533.333 204.8h-42.667c-38.4 0-68.267-29.867-68.267-68.267v-42.667c0-38.4 29.867-68.267 68.267-68.267h42.667c38.4 0 68.267 29.867 68.267 68.267v42.667c0 38.4-29.867 68.267-68.267 68.267zM533.333 93.867h-42.667v42.667h42.667v-42.667zM755.2 204.8h-42.667c-38.4 0-68.267-29.867-68.267-68.267v-42.667c0-38.4 29.867-68.267 68.267-68.267h42.667c38.4 0 68.267 29.867 68.267 68.267v42.667c0 38.4-29.867 68.267-68.267 68.267zM755.2 93.867h-42.667v42.667h42.667v-42.667z" />
<glyph unicode="&#xe918;" glyph-name="camera" d="M512 614.4c-128 0-230.4-102.4-230.4-230.4s102.4-234.667 230.4-234.667 230.4 102.4 230.4 230.4c4.267 128-102.4 230.4-230.4 234.667zM512 217.6c-89.6 0-162.133 72.533-162.133 162.133s72.533 162.133 162.133 162.133 162.133-72.533 162.133-162.133-72.533-162.133-162.133-162.133v0zM955.733 682.667h-170.667l-72.533 106.667c-12.8 21.333-34.133 29.867-59.733 29.867h-277.333c-25.6 4.267-46.933-8.533-59.733-29.867l-72.533-106.667h-8.533v21.333c0 38.4-29.867 68.267-68.267 68.267h-25.6c-38.4 0-68.267-29.867-68.267-68.267v-21.333c-38.4 0-68.267-29.867-68.267-68.267v-512c0-38.4 29.867-68.267 68.267-68.267h883.2c38.4 0 68.267 29.867 68.267 68.267v512c0 38.4-29.867 68.267-68.267 68.267zM140.8 704h21.333v-21.333h-21.333v21.333zM955.733 102.4h-883.2v512h209.067l93.867 140.8h277.333l93.867-140.8h209.067v-512zM827.733 473.6c21.333 0 34.133 17.067 34.133 34.133s-17.067 34.133-34.133 34.133c-21.333 0-34.133-17.067-34.133-34.133s12.8-34.133 34.133-34.133z" />
<glyph unicode="&#xe919;" glyph-name="card" d="M1024 614.4c0 89.6-72.533 162.133-162.133 162.133h-699.733c-89.6 0-162.133-72.533-162.133-162.133v-371.2c0-89.6 72.533-162.133 162.133-162.133h699.733c89.6 0 162.133 72.533 162.133 162.133v371.2zM162.133 704h699.733c51.2 0 93.867-42.667 93.867-93.867v-68.267h-887.467v72.533c0 51.2 42.667 89.6 93.867 89.6zM861.867 149.334h-699.733c-51.2 0-93.867 42.667-93.867 93.867v234.667h883.2v-234.667c4.267-55.467-38.4-93.867-89.6-93.867zM827.733 588.8c21.333 0 34.133 17.067 34.133 34.133 0 21.333-17.067 34.133-34.133 34.133-21.333 0-34.133-17.067-34.133-34.133-4.267-17.067 12.8-34.133 34.133-34.133zM686.933 588.8c21.333 0 34.133 17.067 34.133 34.133 0 21.333-17.067 34.133-34.133 34.133-21.333 0-34.133-17.067-34.133-34.133s12.8-34.133 34.133-34.133zM546.133 588.8c21.333 0 34.133 17.067 34.133 34.133 0 21.333-17.067 34.133-34.133 34.133s-34.133-12.8-34.133-34.133c0-17.067 17.067-34.133 34.133-34.133z" />
<glyph unicode="&#xe91a;" glyph-name="cart" d="M371.2 302.934h448c25.6 0 51.2 17.067 59.733 38.4l132.267 311.467c8.533 21.333 8.533 42.667-4.267 64-12.8 17.067-34.133 29.867-55.467 29.867h-738.133c-12.8 0-25.6-4.267-34.133-12.8l-46.933 106.667c-4.267 12.8-17.067 21.333-29.867 21.333h-68.267c-17.067 0-34.133-12.8-34.133-34.133s12.8-34.133 34.133-34.133h46.933l204.8-465.067c-17.067-21.333-25.6-42.667-25.6-68.267 42.667-42.667 42.667-110.933 0-153.6 0-59.733 51.2-110.933 110.933-110.933s110.933 51.2 110.933 110.933v0c0 17.067-4.267 29.867-8.533 42.667h243.2c-4.267-12.8-8.533-29.867-8.533-42.667 0-59.733 51.2-110.933 115.2-110.933 59.733 0 110.933 51.2 110.933 110.933s-46.933 110.933-110.933 110.933c0 0 0 0 0 0s0 0 0 0v0h-448c0 0 0 0 0 0s-4.267 0-4.267 0c-25.6 0-42.667 21.333-42.667 42.667 0 25.6 17.067 42.667 42.667 42.667zM955.733 682.667l-132.267-311.467h-469.333l-140.8 311.467h742.4zM418.133 106.667c0-25.6-21.333-46.933-42.667-46.933-25.6 0-46.933 21.333-46.933 42.667 0 25.6 21.333 46.933 42.667 46.933 0 0 0 0 0 0 25.6 0 46.933-21.333 46.933-42.667v0zM866.133 106.667c0-25.6-21.333-46.933-42.667-46.933-25.6 0-46.933 21.333-46.933 42.667 0 25.6 21.333 46.933 42.667 46.933 0 0 0 0 0 0 25.6 0 46.933-21.333 46.933-42.667z" />
<glyph unicode="&#xe91b;" glyph-name="chat" d="M951.467 601.6h-209.067v209.067c0 38.4-29.867 68.267-68.267 68.267h-601.6c-38.4 0-68.267-29.867-68.267-68.267v-371.2c0-38.4 29.867-68.267 68.267-68.267h12.8l-8.533-21.333c-12.8-34.133 4.267-76.8 38.4-89.6 8.533-4.267 17.067-4.267 25.6-4.267 12.8 0 21.333 4.267 34.133 8.533l106.667 59.733v-157.867c0-38.4 29.867-68.267 68.267-68.267v0h307.2l192-106.667c8.533-4.267 21.333-8.533 34.133-8.533 38.4 0 68.267 29.867 68.267 68.267 0 8.533 0 17.067-4.267 25.6l-8.533 12.8h12.8c38.4 0 68.267 29.867 68.267 68.267v0 371.2c0 38.4-29.867 72.533-68.267 72.533zM281.6 529.067v-132.267l-140.8-76.8 46.933 115.2h-115.2v375.467h601.6v-209.067h-324.267c-38.4 0-68.267-34.133-68.267-72.533zM951.467 162.134h-115.2l46.933-115.2-209.067 115.2h-324.267v366.933h601.6v-366.933zM443.733 392.534h418.133c17.067 0 34.133 17.067 34.133 34.133s-17.067 34.133-34.133 34.133h-418.133c-17.067 0-34.133-17.067-34.133-34.133s12.8-34.133 34.133-34.133zM443.733 251.734h418.133c17.067 0 34.133 17.067 34.133 34.133s-17.067 34.133-34.133 34.133h-418.133c-17.067 0-34.133-17.067-34.133-34.133s12.8-34.133 34.133-34.133z" />
<glyph unicode="&#xe91c;" glyph-name="check-circle" d="M738.133 588.8c17.067-17.067 17.067-42.667 0-55.467l-268.8-268.8c-17.067-17.067-42.667-17.067-55.467 0l-128 128c-17.067 17.067-17.067 42.667 0 55.467 17.067 17.067 42.667 17.067 55.467 0l98.133-98.133 243.2 238.933c12.8 17.067 38.4 17.067 55.467 0zM1024 426.667c0-281.6-230.4-512-512-512s-512 230.4-512 512c0 281.6 230.4 512 512 512s512-230.4 512-512zM942.933 426.667c0 238.933-192 430.933-430.933 430.933s-430.933-192-430.933-430.933c0-238.933 192-430.933 430.933-430.933s430.933 192 430.933 430.933z" />
<glyph unicode="&#xe91d;" glyph-name="check" d="M1015.467 750.934c-21.333 21.333-55.467 21.333-72.533 0 0 0 0 0 0 0l-533.333-533.333-315.733 320c-21.333 21.333-55.467 21.333-76.8 0s-21.333-55.467 0-76.8c0 0 0 0 0 0l354.133-354.133c21.333-21.333 55.467-21.333 76.8 0 0 0 0 0 0 0l567.467 567.467c12.8 17.067 0 46.933 0 76.8z" />
<glyph unicode="&#xe91e;" glyph-name="clip" d="M337.067 477.867h418.133c21.333 0 38.4 17.067 38.4 38.4s-17.067 38.4-38.4 38.4h-409.6c-4.267 0-8.533 0-12.8-4.267-12.8-4.267-128-38.4-128-123.733 0-72.533 81.067-115.2 128-128 4.267 0 4.267 0 8.533 0h375.467c4.267 0 149.333-4.267 234.667 72.533 42.667 38.4 68.267 93.867 72.533 153.6 0 59.733-34.133 98.133-72.533 136.533-76.8 72.533-204.8 72.533-204.8 72.533h-439.467c-110.933 0-307.2-76.8-307.2-285.867 0-106.667 17.067-183.467 81.067-238.933s145.067-89.6 226.133-89.6h512c21.333 0 38.4 17.067 38.4 38.4s-17.067 38.4-38.4 38.4c0 0 0 0 0 0h-512c-64 0-128 25.6-174.933 68.267s-55.467 102.4-55.467 187.733c0 187.733 221.867 204.8 230.4 204.8h439.467c0 0 102.4 0 153.6-51.2 25.6-21.333 46.933-42.667 46.933-81.067-4.267-38.4-21.333-72.533-46.933-98.133-59.733-55.467-174.933-55.467-179.2-51.2h-384c-17.067 4.267-51.2 25.6-51.2 51.2-4.267 21.333 25.6 42.667 51.2 51.2z" />
<glyph unicode="&#xe91f;" glyph-name="close-circle" d="M512 938.667c-281.6 0-512-230.4-512-512s230.4-512 512-512 512 230.4 512 512c0 281.6-230.4 512-512 512zM512-12.8c-243.2 0-439.467 196.267-439.467 439.467s196.267 439.467 439.467 439.467 443.733-196.267 443.733-439.467-200.533-439.467-443.733-439.467v0zM699.733 614.4c-12.8 12.8-34.133 12.8-51.2 0l-132.267-136.533-140.8 136.533c-12.8 12.8-34.133 12.8-51.2 0-12.8-12.8-12.8-34.133 0-51.2 0 0 0 0 0 0l145.067-136.533-140.8-136.533c-12.8-12.8-12.8-34.133 0-51.2 8.533-8.533 17.067-12.8 25.6-12.8s17.067 4.267 25.6 8.533l145.067 136.533 132.267-136.533c12.8-12.8 34.133-12.8 51.2 0 12.8 12.8 12.8 34.133 0 51.2l-140.8 140.8 132.267 136.533c12.8 17.067 12.8 38.4 0 51.2z" />
<glyph unicode="&#xe920;" glyph-name="close" d="M588.8 426.667l413.867 422.4c17.067 21.333 17.067 51.2 0 68.267-21.333 21.333-51.2 21.333-68.267 0 0 0 0 0 0 0l-413.867-422.4-430.933 426.667c-17.067 17.067-51.2 17.067-68.267-4.267 0 0 0 0 0 0-17.067-21.333-17.067-51.2 0-68.267l430.933-422.4-430.933-422.4c-17.067-17.067-21.333-51.2 0-68.267 17.067-21.333 51.2-21.333 68.267 0 0 0 0 0 0 0l430.933 422.4 413.867-422.4c8.533-8.533 21.333-12.8 34.133-12.8s25.6 4.267 34.133 12.8c21.333 17.067 21.333 51.2 0 68.267l-413.867 422.4z" />
<glyph unicode="&#xe921;" glyph-name="cloud-check" d="M622.933 507.734l-162.133-162.133-68.267 68.267c-12.8 12.8-34.133 12.8-46.933 0s-12.8-34.133 0-46.933c0 0 0 0 0 0l93.867-93.867c12.8-12.8 34.133-12.8 46.933 0l183.467 183.467c12.8 12.8 12.8 34.133 0 46.933-8.533 21.333-29.867 21.333-46.933 4.267 0 4.267 0 0 0 0zM823.467 529.067c-29.867 119.467-115.2 277.333-311.467 277.333-153.6 0-230.4-68.267-264.533-123.733-12.8-21.333-25.6-46.933-29.867-72.533-93.867-25.6-217.6-102.4-217.6-264.533 0-123.733 64-217.6 183.467-264.533 51.2-21.333 106.667-34.133 166.4-34.133h324.267c119.467 0 345.6 51.2 345.6 256-4.267 149.333-102.4 213.333-196.267 226.133zM669.867 115.2h-324.267c0 0-277.333 0-277.333 230.4 0 183.467 209.067 209.067 209.067 209.067s0 183.467 230.4 183.467 256-277.333 256-277.333c4.267 0 12.8 0 21.333 0 46.933 0 166.4-12.8 166.4-162.133-4.267-183.467-281.6-183.467-281.6-183.467z" />
<glyph unicode="&#xe922;" glyph-name="cloud-download" d="M802.133 669.867c-25.6 115.2-106.667 260.267-290.133 260.267-145.067 0-213.333-64-247.467-115.2-12.8-21.333-21.333-42.667-29.867-68.267-89.6-25.6-200.533-98.133-200.533-251.733-4.267-110.933 64-213.333 170.667-251.733 46.933-21.333 102.4-29.867 153.6-34.133h21.333v64h-21.333c0 0-260.267 0-260.267 217.6 0 174.933 192 196.267 192 196.267s0 174.933 213.333 174.933 238.933-260.267 238.933-260.267c4.267 0 12.8 0 17.067 0 42.667 0 153.6-12.8 153.6-153.6 0-174.933-260.267-174.933-260.267-174.933h-42.667v-59.733h42.667c110.933 0 324.267 51.2 324.267 238.933 4.267 140.8-85.333 204.8-174.933 217.6zM379.733 115.2c-8.533 8.533-12.8 12.8-21.333 12.8s-17.067-4.267-21.333-8.533c-12.8-12.8-12.8-34.133 0-46.933l128-140.8c21.333-12.8 42.667-12.8 64 0l140.8 145.067c12.8 12.8 12.8 34.133 0 46.933s-34.133 12.8-46.933 0l-85.333-85.333v452.267c0 17.067-12.8 34.133-34.133 34.133-17.067 0-34.133-12.8-34.133-34.133v-473.6l-89.6 98.133z" />
<glyph unicode="&#xe923;" glyph-name="cloud-upload" d="M823.467 593.067c-29.867 123.733-115.2 281.6-315.733 281.6-149.333 0-226.133-68.267-260.267-128-12.8-17.067-25.6-42.667-29.867-68.267-93.867-25.6-217.6-106.667-217.6-268.8-4.267-119.467 68.267-226.133 183.467-268.8 51.2-21.333 106.667-34.133 166.4-34.133h21.333v68.267h-25.6c0 0-277.333 0-277.333 234.667 0 187.733 209.067 209.067 209.067 209.067s0 187.733 230.4 187.733 256-281.6 256-281.6c4.267 0 12.8 0 21.333 0 46.933 0 166.4-17.067 166.4-166.4 0-187.733-277.333-187.733-277.333-187.733h-46.933v-68.267h46.933c119.467 0 345.6 55.467 345.6 256 0 157.867-98.133 221.867-196.267 234.667zM627.2 413.867c12.8-12.8 34.133-12.8 51.2 0 0 0 0 0 0 0 12.8 12.8 17.067 34.133 0 51.2l-140.8 153.6c-8.533 8.533-21.333 12.8-34.133 8.533-12.8 4.267-25.6 0-34.133-8.533l-149.333-153.6c-12.8-12.8-12.8-34.133 0-51.2 12.8-12.8 34.133-12.8 51.2 0l89.6 93.867v-494.933c0-17.067 17.067-34.133 34.133-34.133s34.133 17.067 34.133 34.133v507.733l98.133-106.667z" />
<glyph unicode="&#xe924;" glyph-name="cloud" d="M827.733 529.067c-29.867 123.733-119.467 281.6-315.733 281.6-153.6 0-226.133-68.267-264.533-128-12.8-21.333-21.333-42.667-29.867-68.267-93.867-29.867-217.6-106.667-217.6-268.8 0-221.867 179.2-302.933 302.933-302.933h465.067c102.4 0 256 68.267 256 256 0 153.6-98.133 217.6-196.267 230.4zM768 110.934h-465.067c0 0-234.667 0-234.667 234.667 0 187.733 209.067 209.067 209.067 209.067s0 187.733 234.667 187.733 256-277.333 256-277.333c8.533 0 12.8 0 21.333 0 46.933 0 166.4-12.8 166.4-162.133 0-192-187.733-192-187.733-192z" />
<glyph unicode="&#xe925;" glyph-name="coin" d="M960 486.4c0 247.467-196.267 452.267-443.733 452.267s-452.267-196.267-452.267-443.733c0-21.333 0-46.933 4.267-68.267-4.267-21.333-4.267-42.667-4.267-64 0-247.467 200.533-448 448-448s448 200.533 448 448c0 21.333 0 42.667-4.267 64 4.267 21.333 4.267 38.4 4.267 59.733zM512 861.867c204.8 0 375.467-166.4 375.467-375.467s-166.4-375.467-375.467-375.467-375.467 166.4-375.467 375.467 170.667 375.467 375.467 375.467v0zM512-8.533c-136.533 0-260.267 72.533-324.267 192 170.667-179.2 452.267-187.733 631.467-21.333 8.533 4.267 12.8 12.8 21.333 21.333-68.267-119.467-192-196.267-328.533-192zM452.267 516.267l34.133 38.4v-192c0-21.333 17.067-38.4 38.4-38.4s38.4 17.067 38.4 38.4v285.867c0 21.333-17.067 38.4-38.4 38.4-8.533 0-21.333-4.267-25.6-12.8l-102.4-106.667c-12.8-12.8-12.8-38.4 4.267-51.2 12.8-12.8 38.4-12.8 51.2 0z" />
<glyph unicode="&#xe926;" glyph-name="coins" d="M140.8 443.734c-25.6 0-46.933 21.333-51.2 46.933 0 12.8 4.267 25.6 12.8 34.133 21.333 17.067 51.2 17.067 68.267 0 8.533-8.533 12.8-21.333 12.8-34.133 0-21.333 17.067-42.667 42.667-42.667s42.667 17.067 42.667 42.667c0 34.133-12.8 68.267-38.4 93.867-8.533 17.067-25.6 29.867-46.933 34.133v29.867c0 21.333-17.067 42.667-42.667 42.667s-42.667-17.067-42.667-42.667v-29.867c-17.067-8.533-34.133-17.067-46.933-29.867-51.2-51.2-51.2-136.533 0-187.733 25.6-25.6 59.733-38.4 93.867-38.4s59.733-25.6 59.733-59.733c0-17.067-4.267-29.867-17.067-42.667-21.333-21.333-59.733-21.333-85.333 0-12.8 12.8-17.067 29.867-17.067 46.933 4.267 21.333-12.8 42.667-38.4 46.933-21.333 4.267-42.667-12.8-46.933-38.4-4.267-42.667 12.8-85.333 42.667-115.2 17.067-17.067 34.133-25.6 55.467-34.133v-46.933c0-21.333 17.067-42.667 42.667-42.667s42.667 17.067 42.667 42.667v46.933c25.6 4.267 46.933 17.067 64 34.133 55.467 55.467 55.467 145.067 0 200.533-29.867 29.867-68.267 42.667-106.667 42.667zM985.6 622.934c25.6 25.6 38.4 59.733 38.4 93.867 0 110.933-128 196.267-307.2 196.267s-307.2-81.067-307.2-196.267c0-34.133 12.8-72.533 38.4-98.133-25.6-25.6-38.4-59.733-38.4-93.867s12.8-72.533 38.4-98.133c-21.333-25.6-38.4-59.733-38.4-98.133 0-34.133 12.8-72.533 38.4-98.133-21.333-25.6-38.4-59.733-38.4-98.133 0-110.933 123.733-196.267 298.667-196.267s311.467 81.067 311.467 196.267c0 34.133-12.8 72.533-38.4 98.133 25.6 25.6 38.4 59.733 38.4 98.133 0 34.133-12.8 72.533-38.4 98.133 25.6 25.6 38.4 59.733 38.4 98.133 4.267 34.133-8.533 68.267-34.133 98.133zM938.667 328.534c0-59.733-106.667-110.933-230.4-110.933s-217.6 51.2-217.6 110.933c0 17.067 8.533 29.867 17.067 42.667 59.733-29.867 128-46.933 196.267-42.667 72.533 0 145.067 12.8 209.067 46.933 17.067-12.8 25.6-29.867 25.6-46.933zM712.533 524.8c72.533 0 145.067 12.8 209.067 46.933 8.533-12.8 17.067-29.867 17.067-46.933 0-59.733-106.667-110.933-230.4-110.933s-217.6 51.2-217.6 110.933c0 17.067 8.533 29.867 17.067 42.667 68.267-29.867 136.533-46.933 204.8-42.667zM716.8 827.734c123.733 0 221.867-51.2 221.867-110.933s-106.667-110.933-230.4-110.933-217.6 51.2-217.6 110.933 102.4 110.933 226.133 110.933zM712.533 25.6c-123.733 0-217.6 51.2-217.6 110.933 0 17.067 8.533 29.867 17.067 42.667 59.733-29.867 128-46.933 196.267-42.667 72.533 0 145.067 12.8 209.067 46.933 12.8-12.8 21.333-29.867 21.333-46.933 0-64-106.667-110.933-226.133-110.933z" />
<glyph unicode="&#xe927;" glyph-name="currency-exchange" d="M1011.2 584.534c-12.8 8.533-34.133 4.267-42.667-8.533 0 0 0 0 0 0l-38.4-59.733c-21.333 89.6-64 170.667-128 234.667-93.867 93.867-217.6 153.6-341.333 153.6s-247.467-59.733-341.333-153.6c-12.8-12.8-12.8-34.133 0-46.933s34.133-12.8 46.933 0c0 0 0 0 0 0 81.067 81.067 187.733 132.267 294.4 132.267s213.333-51.2 294.4-132.267c55.467-55.467 98.133-132.267 110.933-209.067l-68.267 46.933c-17.067 8.533-34.133 4.267-42.667-8.533s-4.267-34.133 8.533-42.667l128-89.6c0 0 0 0 4.267 0 0 0 4.267-4.267 4.267-4.267s0 0 0 0c4.267 0 4.267 0 8.533 0v0c4.267 0 4.267 0 8.533 0 0 0 0 0 4.267 0 0 0 4.267 0 4.267 0s0 0 4.267 0c0 0 4.267 0 4.267 4.267 0 0 0 0 4.267 4.267 0 0 0 0 4.267 4.267 0 0 0 0 0 0s0 0 0 0l85.333 132.267c0 12.8-4.267 29.867-17.067 42.667zM861.867 149.334c-145.067-162.133-396.8-174.933-558.933-29.867-8.533 8.533-21.333 17.067-29.867 29.867-55.467 55.467-98.133 132.267-110.933 209.067l68.267-46.933c4.267-4.267 12.8-4.267 17.067-4.267 8.533 0 21.333 4.267 25.6 12.8 8.533 12.8 4.267 34.133-8.533 42.667l-128 89.6c0 0 0 0 0 0-4.267 0-4.267 4.267-8.533 4.267 0 0 0 0 0 0s0 0 0 0c-4.267 0-4.267 0-8.533 0v0c-4.267 0-4.267 0-8.533 0v0c-4.267 0-4.267-4.267-8.533-4.267 0 0 0 0 0 0-4.267 0-4.267-4.267-4.267-8.533 0 0 0 0 0 0s0 0 0 0l-85.333-132.267c-8.533-12.8-4.267-34.133 8.533-42.667s34.133-4.267 42.667 8.533c0 0 0 0 0 0l38.4 59.733c51.2-217.6 243.2-375.467 465.067-384 128 4.267 251.733 55.467 345.6 149.333 12.8 12.8 12.8 34.133 0 46.933-17.067 12.8-38.4 12.8-51.2 0 0 0 0 0 0 0zM375.467 349.867c-17.067 0-34.133-12.8-34.133-29.867 0 0 0 0 0 0-4.267-51.2 21.333-85.333 51.2-115.2 21.333-17.067 46.933-29.867 76.8-38.4v-34.133c0-17.067 12.8-29.867 29.867-34.133 17.067 0 29.867 12.8 34.133 29.867 0 0 0 4.267 0 4.267v25.6c34.133 4.267 64 21.333 85.333 42.667 59.733 59.733 59.733 157.867 0 217.6 0 0-4.267 4.267-4.267 4.267-25.6 25.6-46.933 25.6-81.067 29.867v166.4c8.533 0 21.333-4.267 29.867-8.533 12.8-12.8 21.333-34.133 17.067-55.467 0-17.067 12.8-34.133 34.133-34.133v0 0c17.067 0 34.133 12.8 34.133 34.133 0 0 0 0 0 0 4.267 38.4-12.8 72.533-38.4 98.133-21.333 21.333-51.2 34.133-81.067 38.4v25.6c0 17.067-12.8 34.133-34.133 34.133-17.067 0-34.133-12.8-34.133-34.133v0-25.6c-25.6 0-46.933-12.8-68.267-29.867-29.867-25.6-46.933-64-51.2-106.667 4.267-42.667 21.333-81.067 55.467-106.667 21.333-21.333 46.933-38.4 76.8-46.933v-157.867c-8.533 4.267-12.8 8.533-21.333 17.067-25.6 25.6-46.933 38.4-42.667 59.733 0 12.8-12.8 29.867-34.133 29.867 0 0 0 0 0 0v0zM567.467 384c38.4-38.4 42.667-89.6 8.533-123.733-12.8-12.8-25.6-21.333-42.667-25.6v157.867c17.067-4.267 21.333 0 34.133-8.533zM452.267 482.134c-17.067 12.8-46.933 46.933-46.933 72.533s29.867 51.2 42.667 64c8.533 0 12.8 0 21.333 0v-149.333c-8.533 4.267-12.8 8.533-17.067 12.8z" />
<glyph unicode="&#xe928;" glyph-name="delete-document" d="M857.6 371.2v234.667c0 21.333-4.267 46.933-17.067 64 0 4.267-4.267 8.533-8.533 8.533l-170.667 200.533c-21.333 38.4-59.733 59.733-102.4 59.733h-392.533c-72.533 0-128-55.467-128-128v-716.8c0-72.533 55.467-128 128-128h426.667c106.667-81.067 260.267-64 341.333 42.667s64 260.267-42.667 341.333c-12.8 8.533-21.333 17.067-34.133 21.333zM115.2 93.867v716.8c0 29.867 21.333 51.2 51.2 51.2h392.533c17.067 0 34.133-8.533 42.667-25.6l170.667-204.8c4.267-8.533 8.533-17.067 8.533-25.6v-209.067c-12.8 4.267-25.6 4.267-38.4 4.267-132.267 0-243.2-106.667-243.2-243.2 0-38.4 8.533-81.067 29.867-115.2h-362.667c-29.867 0-51.2 21.333-51.2 51.2zM742.4-8.533c-93.867 0-166.4 72.533-166.4 166.4s72.533 166.4 166.4 166.4 166.4-72.533 166.4-166.4-72.533-166.4-166.4-166.4v0zM823.467 238.934c-12.8 17.067-38.4 17.067-55.467 0 0 0 0 0 0 0l-25.6-25.6-25.6 25.6c-17.067 12.8-38.4 12.8-55.467 0-12.8-12.8-12.8-38.4 0-51.2l25.6-25.6-25.6-25.6c-12.8-17.067-12.8-38.4 0-55.467 12.8-12.8 38.4-12.8 51.2 0l25.6 25.6 25.6-25.6c17.067-12.8 38.4-12.8 55.467 0 12.8 12.8 12.8 38.4 0 51.2l-25.6 25.6 25.6 25.6c21.333 17.067 21.333 42.667 4.267 55.467z" />
<glyph unicode="&#xe929;" glyph-name="delete-folder" d="M883.2 456.534v110.933c0 64-51.2 115.2-115.2 115.2h-273.067l-38.4 59.733c-25.6 34.133-64 55.467-106.667 55.467h-183.467c-42.667 0-76.8-21.333-98.133-55.467l-51.2-81.067c-12.8-21.333-17.067-38.4-17.067-59.733v-430.933c0-64 51.2-115.2 115.2-115.2h588.8c110.933-55.467 243.2-8.533 294.4 98.133 55.467 110.933 8.533 243.2-98.133 294.4-4.267 4.267-8.533 8.533-17.067 8.533zM68.267 170.667v430.933c0 8.533 4.267 17.067 8.533 25.6l51.2 81.067c8.533 12.8 25.6 21.333 38.4 21.333h179.2c17.067 0 38.4-8.533 51.2-21.333l46.933-72.533c12.8-12.8 29.867-21.333 46.933-21.333h277.333c25.6 0 46.933-21.333 46.933-46.933v-93.867c-4.267 0-8.533 0-12.8 0-123.733 0-221.867-98.133-221.867-221.867 0-46.933 12.8-89.6 42.667-128h-507.733c-25.6 0-46.933 21.333-46.933 46.933zM802.133 102.4c-85.333 0-149.333 68.267-149.333 149.333s68.267 149.333 149.333 149.333 149.333-68.267 149.333-149.333v0c4.267-85.333-64-149.333-149.333-149.333zM874.667 324.267c-12.8 12.8-34.133 12.8-51.2 0 0 0 0 0 0 0l-21.333-25.6-25.6 25.6c-12.8 12.8-34.133 12.8-51.2 0-12.8-12.8-12.8-34.133 0-46.933l25.6-25.6-25.6-25.6c-12.8-12.8-12.8-34.133 0-51.2 12.8-12.8 34.133-12.8 46.933 0l25.6 25.6 25.6-25.6c12.8-12.8 34.133-12.8 51.2 0 12.8 12.8 12.8 34.133 0 46.933l-25.6 25.6 25.6 25.6c12.8 12.8 12.8 38.4 0 51.2z" />
<glyph unicode="&#xe92a;" glyph-name="delete-location" d="M640 567.467h-256c-21.333 0-34.133-17.067-34.133-34.133 0-21.333 17.067-34.133 34.133-34.133h256c21.333 0 34.133 17.067 34.133 34.133s-12.8 34.133-34.133 34.133zM512 938.667c-230.4 0-430.933-196.267-430.933-418.133 4.267-68.267 25.6-136.533 55.467-196.267 0 0 0-4.267 4.267-4.267 4.267-4.267 64-98.133 132.267-192 132.267-179.2 187.733-213.333 238.933-213.333s106.667 34.133 238.933 213.333c68.267 93.867 128 187.733 132.267 192 0 0 4.267 4.267 4.267 4.267 34.133 59.733 51.2 128 55.467 192 0 226.133-200.533 422.4-430.933 422.4zM823.467 358.4c0 0-238.933-371.2-311.467-371.2s-311.467 371.2-311.467 371.2c-29.867 51.2-42.667 106.667-46.933 162.133 0 187.733 166.4 349.867 362.667 349.867s362.667-162.133 362.667-349.867c-8.533-59.733-25.6-115.2-55.467-162.133z" />
<glyph unicode="&#xe92b;" glyph-name="diamond" d="M998.4 661.334l-200.533 196.267c-12.8 12.8-29.867 21.333-46.933 21.333h-486.4c-17.067 0-34.133-8.533-46.933-21.333l-196.267-196.267c-25.6-21.333-25.6-59.733-4.267-85.333l439.467-576c21.333-29.867 64-34.133 93.867-12.8 4.267 4.267 8.533 8.533 12.8 12.8l443.733 571.733c21.333 29.867 17.067 64-8.533 89.6zM213.333 759.467l68.267-123.733h-192l123.733 123.733zM627.2 635.734h-234.667l115.2 145.067 119.467-145.067zM644.267 567.467l-132.267-435.2-136.533 435.2h268.8zM302.933 567.467l136.533-439.467-341.333 439.467h204.8zM716.8 567.467h204.8l-341.333-439.467 136.533 439.467zM738.133 635.734l68.267 123.733 123.733-123.733h-192zM755.2 810.667v0l-72.533-136.533-110.933 136.533h183.467zM448 810.667l-110.933-136.533-76.8 132.267 4.267 4.267h183.467z" />
<glyph unicode="&#xe92c;" glyph-name="document-alt" d="M627.2 857.6c17.067 0 38.4-8.533 46.933-25.6l179.2-217.6c4.267-8.533 8.533-17.067 8.533-29.867v-537.6c0-29.867-25.6-55.467-55.467-55.467h-588.8c-29.867 0-55.467 25.6-55.467 55.467v755.2c0 29.867 25.6 55.467 55.467 55.467h409.6zM627.2 938.667h-409.6c-76.8 0-136.533-59.733-136.533-136.533v-755.2c0-72.533 59.733-136.533 136.533-136.533h593.067c72.533 0 136.533 59.733 136.533 136.533v541.867c0 25.6-8.533 46.933-21.333 68.267-4.267 4.267-4.267 8.533-8.533 8.533l-179.2 213.333c-25.6 38.4-68.267 59.733-110.933 59.733v0 0z" />
<glyph unicode="&#xe92d;" glyph-name="document" d="M900.267 938.667h-558.933c-25.6 0-46.933-12.8-59.733-34.133l-196.267-196.267c-21.333-12.8-34.133-34.133-34.133-59.733v-657.067c0-38.4 34.133-72.533 72.533-72.533h776.533c38.4 0 72.533 34.133 72.533 72.533v874.667c0 38.4-29.867 72.533-72.533 72.533zM268.8 789.334v-68.267h-68.267l68.267 68.267zM900.267-8.533h-776.533v652.8c0 0 0 0 0 0v0h217.6v217.6c0 0 0 0 0 0h554.667v-870.4h4.267zM755.2 379.734h-486.4c-21.333 0-38.4-17.067-38.4-38.4s17.067-38.4 38.4-38.4h486.4c21.333 0 38.4 17.067 38.4 38.4s-17.067 38.4-38.4 38.4zM682.667 209.067h-413.867c-21.333 0-38.4-17.067-38.4-38.4s17.067-38.4 38.4-38.4h413.867c21.333 0 38.4 17.067 38.4 38.4s-17.067 38.4-38.4 38.4zM584.533 477.867h145.067c38.4 0 72.533 34.133 72.533 72.533v145.067c0 38.4-34.133 72.533-72.533 72.533h-145.067c-38.4 0-72.533-34.133-72.533-72.533v-145.067c0-42.667 34.133-72.533 72.533-72.533zM584.533 695.467h145.067v-145.067h-145.067v145.067z" />
<glyph unicode="&#xe92e;" glyph-name="dollar-circle" d="M512 938.667c-281.6 0-512-230.4-512-512s230.4-512 512-512 512 230.4 512 512v0c0 281.6-230.4 512-512 512zM512-17.066c-243.2 0-443.733 200.533-443.733 443.733s200.533 443.733 443.733 443.733 443.733-200.533 443.733-443.733-200.533-443.733-443.733-443.733v0zM533.333 456.534v187.733c17.067-4.267 29.867-12.8 42.667-25.6s12.8-21.333 12.8-55.467c0-21.333 17.067-34.133 34.133-34.133 21.333 0 34.133 17.067 34.133 34.133 4.267 38.4-8.533 76.8-34.133 102.4s-55.467 42.667-89.6 46.933v17.067c0 21.333-17.067 34.133-34.133 34.133s-34.133-17.067-34.133-34.133v-17.067c-76.8-17.067-132.267-89.6-128-166.4 0-85.333 72.533-128 128-145.067v-213.333c-42.667 21.333-72.533 64-68.267 110.933 0 21.333-17.067 34.133-34.133 34.133s-34.133-12.8-34.133-34.133c0-93.867 59.733-170.667 140.8-183.467v-12.8c0-21.333 17.067-34.133 34.133-34.133s34.133 17.067 34.133 34.133v17.067c68.267 12.8 149.333 59.733 149.333 170.667 0 98.133-93.867 153.6-153.6 166.4zM405.333 541.867c0 42.667 21.333 81.067 59.733 93.867v-166.4c-34.133 12.8-55.467 38.4-59.733 72.533zM533.333 187.734v196.267c34.133-12.8 81.067-46.933 81.067-98.133 4.267-46.933-29.867-89.6-81.067-98.133z" />
<glyph unicode="&#xe92f;" glyph-name="dollar" d="M704 426.667c-42.667 38.4-98.133 59.733-153.6 59.733v298.667c34.133-4.267 64-21.333 85.333-42.667 25.6-25.6 25.6-46.933 25.6-89.6 0-21.333 17.067-38.4 38.4-38.4s38.4 17.067 38.4 38.4c0 51.2 0 98.133-46.933 145.067-38.4 38.4-89.6 59.733-140.8 68.267v34.133c0 21.333-17.067 38.4-38.4 38.4s-38.4-17.067-38.4-38.4v-38.4c-42.667-4.267-85.333-21.333-119.467-51.2-93.867-93.867-98.133-247.467-8.533-337.067 34.133-29.867 81.067-51.2 128-55.467v-332.8c-29.867 8.533-55.467 21.333-72.533 42.667-46.933 46.933-68.267 76.8-64 119.467 0 21.333-12.8 38.4-34.133 38.4s-38.4-12.8-38.4-34.133c-8.533-81.067 38.4-132.267 85.333-179.2 34.133-34.133 81.067-59.733 128-68.267v-55.467c0-21.333 17.067-38.4 38.4-38.4s38.4 17.067 38.4 38.4v51.2c136.533 12.8 238.933 132.267 226.133 268.8-12.8 64-38.4 119.467-76.8 157.867zM401.067 529.067c-59.733 55.467-55.467 166.4 8.533 230.4 17.067 17.067 42.667 25.6 64 29.867v-290.133c-25.6 0-51.2 12.8-72.533 29.867zM648.533 128c-25.6-25.6-59.733-42.667-98.133-46.933v332.8c38.4 0 72.533-12.8 98.133-38.4 68.267-68.267 68.267-179.2 0-247.467 0 0 0 0 0 0v0z" />
<glyph unicode="&#xe930;" glyph-name="dribbble" d="M512 938.667c-281.6 0-512-230.4-512-512s230.4-512 512-512 512 230.4 512 512-230.4 512-512 512zM844.8 695.467c55.467-72.533 93.867-162.133 93.867-256-106.667 21.333-204.8 21.333-285.867 4.267-17.067 34.133-29.867 68.267-46.933 102.4 93.867 38.4 174.933 89.6 238.933 149.333zM789.333 755.2c-64-59.733-140.8-102.4-221.867-136.533-55.467 106.667-110.933 183.467-145.067 230.4 29.867 4.267 59.733 8.533 89.6 8.533 106.667 0 200.533-38.4 277.333-102.4zM341.333 819.2c25.6-34.133 85.333-115.2 149.333-230.4-162.133-51.2-320-59.733-396.8-64 29.867 132.267 123.733 243.2 247.467 294.4zM81.067 443.734c4.267 0 4.267 0 0 0 55.467 0 149.333 4.267 264.533 25.6 64 12.8 123.733 25.6 183.467 46.933 12.8-29.867 29.867-59.733 42.667-93.867-81.067-25.6-149.333-64-200.533-98.133-89.6-59.733-153.6-132.267-187.733-170.667-64 76.8-102.4 170.667-102.4 277.333 0 0 0 8.533 0 12.8zM243.2 89.6c29.867 38.4 89.6 106.667 174.933 166.4 59.733 38.4 119.467 68.267 183.467 89.6 38.4-93.867 68.267-200.533 85.333-311.467-55.467-25.6-115.2-38.4-179.2-38.4-98.133 0-192 38.4-264.533 93.867zM763.733 81.067c-17.067 102.4-46.933 196.267-81.067 285.867 81.067 12.8 166.4 12.8 251.733-8.533-17.067-115.2-81.067-213.333-170.667-277.333z" />
<glyph unicode="&#xe931;" glyph-name="earphones" d="M908.8 371.2c0 8.533 0 12.8 0 21.333v42.667c0 149.333-89.6 285.867-221.867 354.133v0c0 38.4-29.867 68.267-68.267 68.267h-217.6c-34.133 0-64-25.6-64-59.733-136.533-68.267-221.867-204.8-221.867-358.4v-42.667c0-8.533 0-12.8 0-21.333-98.133-46.933-140.8-166.4-89.6-268.8 34.133-68.267 102.4-110.933 179.2-110.933h89.6c38.4 0 68.267 29.867 68.267 68.267v264.533c0 38.4-29.867 68.267-68.267 68.267 0 0-102.4 0-110.933 0v0 42.667c-8.533 115.2 51.2 226.133 153.6 285.867 8.533-25.6 34.133-42.667 64-42.667h221.867c25.6 0 46.933 12.8 59.733 38.4 98.133-59.733 162.133-166.4 162.133-281.6v-42.667c0 0 0 0 0 0-8.533 0-76.8 0-89.6 0h-21.333c-38.4 0-68.267-29.867-68.267-68.267v-264.533c0-38.4 29.867-68.267 68.267-68.267h89.6c110.933 0 200.533 89.6 200.533 200.533-4.267 72.533-46.933 145.067-115.2 174.933zM290.133 328.534v-264.533h-25.6v264.533h25.6zM200.533 59.734c-72.533 0-132.267 59.733-132.267 132.267s59.733 132.267 132.267 132.267v0-264.533zM622.933 746.667h-221.867v42.667h221.867v-42.667zM733.867 59.734v264.533h21.333v-264.533h-21.333zM819.2 59.734v264.533c72.533 0 132.267-59.733 132.267-132.267s-55.467-132.267-132.267-132.267z" />
<glyph unicode="&#xe932;" glyph-name="edit-alt" d="M981.333 768l-140.8 140.8c-34.133 34.133-85.333 34.133-119.467 0 0 0 0 0 0 0l-674.133-682.667c-25.6-25.6-25.6-89.6-25.6-89.6v-221.867l226.133 29.867c29.867 0 59.733 12.8 85.333 29.867l648.533 674.133c29.867 34.133 21.333 85.333 0 119.467zM247.467 29.867l-140.8 140.8 674.133 682.667 140.8-140.8-674.133-682.667z" />
<glyph unicode="&#xe933;" glyph-name="edit" d="M832-12.8h-695.467v874.667h392.533v72.533h-392.533c-38.4 0-68.267-29.867-68.267-68.267v-878.933c0-38.4 29.867-68.267 68.267-68.267h691.2c38.4 0 68.267 29.867 68.267 68.267v439.467h-68.267v-439.467zM947.2 844.8l-46.933 51.2c-25.6 25.6-72.533 25.6-98.133 0 0 0 0 0 0 0s-384-384-388.267-405.333l-17.067-68.267c-8.533-38.4 12.8-76.8 51.2-85.333 12.8-4.267 21.333-4.267 34.133 0l68.267 17.067c25.6 4.267 401.067 396.8 401.067 396.8 17.067 25.6 12.8 64-4.267 93.867zM576 473.6l-46.933 46.933c0 0 0 0 0 0l324.267 324.267 46.933-46.933-324.267-324.267z" />
<glyph unicode="&#xe934;" glyph-name="euro-circle" d="M512 938.667c-281.6 0-512-230.4-512-512s230.4-512 512-512 512 230.4 512 512v0c-4.267 281.6-230.4 512-512 512zM512-12.8c-243.2 0-443.733 196.267-443.733 439.467s200.533 443.733 443.733 443.733 439.467-200.533 439.467-443.733-196.267-439.467-439.467-439.467v0zM652.8 226.134c-106.667-72.533-247.467-51.2-324.267 55.467-12.8 17.067-21.333 34.133-29.867 51.2h243.2c21.333 0 34.133 17.067 34.133 34.133 0 21.333-17.067 34.133-34.133 34.133h-256c0 4.267 0 8.533 0 12.8s0 8.533 0 12.8h328.533c21.333 0 34.133 17.067 34.133 34.133 0 21.333-17.067 34.133-34.133 34.133h-311.467c46.933 119.467 179.2 179.2 298.667 136.533 17.067-8.533 38.4-17.067 51.2-29.867 17.067-12.8 38.4-8.533 46.933 4.267 12.8 17.067 8.533 38.4-4.267 46.933 0 0 0 0-4.267 4.267-132.267 102.4-320 68.267-418.133-64-21.333-29.867-34.133-59.733-42.667-93.867h-8.533c-21.333 0-34.133-17.067-34.133-34.133s12.8-29.867 29.867-34.133c0-4.267 0-8.533 0-12.8s0-8.533 0-12.8c-17.067-4.267-34.133-21.333-29.867-38.4 0-17.067 17.067-29.867 34.133-29.867h8.533c42.667-162.133 209.067-256 371.2-209.067 34.133 8.533 64 25.6 93.867 42.667 17.067 8.533 21.333 29.867 8.533 46.933s-34.133 21.333-51.2 8.533c0 4.267 0 0 0 0z" />
<glyph unicode="&#xe935;" glyph-name="euro" d="M960 64c-12.8 17.067-34.133 21.333-51.2 8.533-72.533-51.2-162.133-81.067-251.733-81.067-204.8 0-379.733 123.733-426.667 320h435.2c21.333 0 38.4 17.067 38.4 38.4s-17.067 34.133-38.4 38.4h-448c0 8.533 0 29.867 0 38.4 0 4.267 0 8.533 0 12.8h494.933c21.333 0 38.4 17.067 38.4 38.4s-17.067 34.133-38.4 38.4h-482.133c46.933 200.533 221.867 341.333 426.667 345.6 89.6 0 179.2-29.867 251.733-81.067 17.067-12.8 38.4-8.533 51.2 8.533s8.533 38.4-8.533 51.2c0 0 0 0 0 0-230.4 162.133-550.4 106.667-712.533-123.733-42.667-59.733-72.533-128-85.333-200.533h-59.733c-21.333 0-38.4-17.067-38.4-38.4s17.067-34.133 38.4-38.4h51.2c0-8.533 0-4.267 0-12.8s0-29.867 0-38.4h-51.2c-21.333 0-38.4-17.067-38.4-38.4s17.067-34.133 38.4-38.4h59.733c46.933-238.933 256-392.533 503.467-392.533 106.667 0 209.067 34.133 294.4 93.867 17.067 12.8 21.333 34.133 8.533 51.2 0 0 0 0 0 0z" />
<glyph unicode="&#xe936;" glyph-name="exit-full-screen" d="M814.933 196.267h59.733c25.6 0 46.933 25.6 46.933 51.2s-21.333 46.933-46.933 46.933h-192c-25.6 0-46.933-21.333-46.933-51.2v-200.533c0-25.6 17.067-46.933 46.933-51.2 25.6 0 46.933 17.067 51.2 46.933 0 0 0 4.267 0 4.267v93.867l200.533-213.333c17.067-17.067 46.933-21.333 68.267 0 17.067 17.067 21.333 46.933 0 68.267 0 0 0 0 0 0l-187.733 204.8zM204.8 196.267h-64c-25.6 0-51.2 25.6-46.933 51.2 0 25.6 21.333 46.933 46.933 46.933h192c29.867 4.267 51.2-21.333 51.2-46.933 0 0 0 0 0 0v-200.533c0-25.6-21.333-46.933-46.933-51.2-25.6 0-46.933 21.333-51.2 46.933 0 0 0 4.267 0 4.267v98.133l-204.8-213.333c-17.067-17.067-51.2-17.067-68.267 0s-17.067 51.2 0 68.267l192 196.267zM819.2 652.8h59.733c25.6 0 46.933-25.6 46.933-51.2s-21.333-46.933-46.933-46.933h-192c-25.6 0-46.933 21.333-46.933 51.2v196.267c0 25.6 21.333 46.933 46.933 46.933s46.933-21.333 46.933-46.933v-93.867l200.533 213.333c17.067 17.067 51.2 17.067 68.267 0s17.067-51.2 0-68.267c0 0 0 0 0 0l-183.467-200.533zM204.8 652.8h-64c-25.6 0-51.2-25.6-46.933-51.2 0-25.6 21.333-46.933 46.933-46.933h192c29.867-4.267 51.2 21.333 51.2 46.933 0 0 0 0 0 0v200.533c0 25.6-21.333 51.2-46.933 51.2s-51.2-21.333-51.2-46.933c0 0 0 0 0-4.267v-98.133l-200.533 217.6c-21.333 17.067-51.2 17.067-72.533 0-17.067-17.067-17.067-51.2 0-68.267l192-200.533z" />
<glyph unicode="&#xe937;" glyph-name="eye" d="M1011.2 465.067c-8.533 12.8-209.067 337.067-499.2 337.067s-494.933-324.267-503.467-337.067c-12.8-21.333-12.8-51.2 0-72.533 8.533-12.8 209.067-337.067 499.2-337.067v0c290.133 0 490.667 324.267 499.2 337.067 17.067 21.333 17.067 46.933 4.267 72.533zM512 123.734v0c-256 0-443.733 302.933-443.733 302.933s187.733 302.933 443.733 302.933 439.467-302.933 439.467-302.933-187.733-302.933-439.467-302.933zM512 614.4c-102.4 0-187.733-81.067-187.733-183.467s81.067-187.733 183.467-187.733c102.4 0 187.733 81.067 187.733 183.467 0 0 0 0 0 0 0 102.4-81.067 187.733-183.467 187.733v0zM512 311.467c-64 0-115.2 51.2-119.467 115.2 0 64 51.2 115.2 115.2 119.467 64 0 115.2-51.2 119.467-115.2 0 0 0 0 0 0 0-68.267-51.2-119.467-115.2-119.467v0z" />
<glyph unicode="&#xe938;" glyph-name="facebook" d="M588.8 601.6v89.6c0 12.8 0 25.6 0 29.867 0 8.533 4.267 12.8 8.533 21.333s12.8 12.8 21.333 12.8c8.533 4.267 21.333 4.267 38.4 4.267h89.6v179.2h-140.8c-81.067 0-140.8-21.333-174.933-59.733s-55.467-93.867-55.467-170.667v-106.667h-102.4v-174.933h106.667v-512h213.333v512h140.8l17.067 174.933h-162.133z" />
<glyph unicode="&#xe939;" glyph-name="filter-alt" d="M38.4 729.6h64c21.333-68.267 93.867-110.933 166.4-89.6 42.667 12.8 81.067 46.933 93.867 93.867h622.933c21.333 0 38.4 17.067 38.4 38.4s-17.067 38.4-38.4 38.4h-627.2c-21.333 64-93.867 106.667-162.133 85.333-42.667-12.8-81.067-46.933-93.867-93.867h-64c-21.333 0-38.4-17.067-38.4-34.133s17.067-38.4 38.4-38.4zM230.4 827.734c34.133 0 59.733-25.6 59.733-59.733s-25.6-64-59.733-64-59.733 29.867-59.733 64 25.6 59.733 59.733 59.733zM985.6 465.067h-349.867c-25.6 68.267-102.4 102.4-170.667 76.8-34.133-12.8-64-42.667-76.8-76.8h-349.867c-21.333 0-38.4-17.067-38.4-38.4s17.067-38.4 38.4-38.4h341.333c12.8-72.533 81.067-119.467 153.6-106.667 55.467 8.533 98.133 51.2 106.667 106.667h341.333c21.333 0 38.4 17.067 38.4 38.4s-17.067 38.4-34.133 38.4v0zM512 354.134c-34.133 0-59.733 25.6-59.733 59.733s25.6 59.733 59.733 59.733c34.133 0 59.733-25.6 59.733-59.733s-29.867-59.733-59.733-59.733zM985.6 123.734h-64c-21.333 72.533-93.867 110.933-166.4 93.867-42.667-12.8-81.067-46.933-93.867-93.867h-622.933c-21.333 0-38.4-17.067-38.4-38.4s17.067-38.4 38.4-38.4h622.933c21.333-72.533 93.867-110.933 166.4-93.867 42.667 12.8 81.067 46.933 93.867 93.867h64c21.333 0 38.4 17.067 38.4 38.4-4.267 21.333-21.333 38.4-38.4 38.4zM789.333 25.6c-34.133 0-59.733 25.6-59.733 59.733s25.6 59.733 59.733 59.733 59.733-25.6 59.733-59.733c0-34.133-25.6-59.733-59.733-59.733z" />
<glyph unicode="&#xe93a;" glyph-name="filter" d="M1015.467 878.934c-4.267 12.8-12.8 17.067-25.6 17.067h-960c-12.8 0-21.333-4.267-25.6-17.067-8.533-8.533-4.267-21.333 4.267-34.133l366.933-448v-413.867c0-12.8 4.267-21.333 12.8-25.6 8.533 0 12.8 0 17.067 0s8.533 0 12.8 4.267l209.067 102.4c8.533 4.267 17.067 17.067 17.067 25.6v311.467l366.933 448c8.533 8.533 12.8 21.333 4.267 29.867zM588.8 430.934c-4.267-4.267-8.533-12.8-8.533-21.333v-302.933l-145.067-72.533v371.2c0 8.533-4.267 12.8-8.533 21.333l-328.533 409.6h827.733l-337.067-405.333z" />
<glyph unicode="&#xe93b;" glyph-name="flag" d="M797.867 563.2l115.2 200.533c12.8 21.333 12.8 51.2 0 72.533s-38.4 25.6-64 25.6h-674.133c0 21.333-4.267 76.8-38.4 76.8-21.333 0-38.4-17.067-38.4-38.4v-947.2c0-21.333 17.067-38.4 34.133-38.4s38.4 17.067 38.4 34.133c0 0 0 0 0 0v311.467h674.133c42.667 0 76.8 34.133 76.8 76.8 0 12.8-4.267 21.333-8.533 34.133l-115.2 192zM174.933 341.334v448h674.133l-149.333-226.133 149.333-226.133h-674.133z" />
<glyph unicode="&#xe93c;" glyph-name="folder" d="M401.067 780.8c21.333 0 42.667-8.533 55.467-25.6l55.467-85.333c12.8-17.067 34.133-25.6 55.467-25.6h324.267c29.867 0 55.467-25.6 55.467-55.467v-456.533c0-29.867-25.6-55.467-55.467-55.467h-755.2c-29.867 0-55.467 25.6-55.467 55.467v499.2c0 8.533 4.267 17.067 8.533 25.6l55.467 93.867c8.533 17.067 29.867 29.867 46.933 29.867h209.067zM401.067 861.867h-209.067c-46.933 0-89.6-25.6-115.2-64l-55.467-98.133c-12.8-21.333-21.333-46.933-21.333-68.267v-499.2c0-72.533 59.733-132.267 136.533-132.267h755.2c72.533 0 136.533 59.733 136.533 136.533v456.533c-4.267 72.533-64 132.267-140.8 132.267h-315.733l-46.933 72.533c-25.6 38.4-72.533 64-123.733 64v0 0z" />
<glyph unicode="&#xe93d;" glyph-name="forward" d="M712.533 785.067v-136.533h-183.467c0 0-221.867-25.6-332.8-136.533-132.267-136.533-110.933-443.733-110.933-443.733s0 413.867 448 413.867h183.467v-136.533l221.867 217.6-217.6 221.867zM721.067 866.134c25.6 0 51.2-8.533 68.267-25.6l209.067-221.867c29.867-34.133 29.867-85.333-4.267-115.2 0 0 0 0 0 0l-238.933-221.867c-25.6-21.333-59.733-29.867-89.6-17.067s-34.133 42.667-34.133 76.8v55.467h-98.133c-362.667 0-362.667-324.267-362.667-337.067-4.267-42.667-38.4-76.8-85.333-76.8h-4.267c-46.933 0-81.067 38.4-81.067 85.333 0 64-21.333 349.867 136.533 499.2 128 128 354.133 157.867 384 162.133 4.267 0 4.267 0 8.533 0h102.4v55.467c0 34.133 25.6 64 55.467 76.8 12.8 4.267 21.333 4.267 34.133 4.267v0 0z" />
<glyph unicode="&#xe93e;" glyph-name="full-screen" d="M179.2 840.534h59.733c25.6 0 46.933 25.6 46.933 51.2s-21.333 46.933-46.933 46.933h-192c-25.6 0-46.933-21.333-46.933-51.2v-200.533c0-21.333 21.333-46.933 46.933-46.933s46.933 17.067 51.2 46.933c0 0 0 4.267 0 4.267v93.867l200.533-213.333c17.067-17.067 46.933-17.067 64 0 21.333 21.333 21.333 51.2 0 68.267l-183.467 200.533zM840.533 840.534h-59.733c-25.6 0-51.2 25.6-46.933 51.2 0 25.6 21.333 46.933 46.933 46.933h192c25.6 0 46.933-21.333 46.933-51.2 0 0 0 0 0 0v-200.533c0-25.6-21.333-46.933-46.933-51.2-25.6 0-46.933 21.333-51.2 46.933 0 0 0 4.267 0 4.267v98.133l-200.533-213.333c-17.067-17.067-51.2-21.333-68.267 0-17.067 17.067-21.333 51.2 0 68.267 0 0 0 0 0 0l187.733 200.533zM179.2 17.067h59.733c25.6 0 46.933-25.6 46.933-51.2s-21.333-46.933-46.933-46.933h-192c-25.6 0-46.933 21.333-46.933 51.2v200.533c0 25.6 17.067 46.933 46.933 51.2 25.6 0 46.933-17.067 51.2-46.933 0 0 0-4.267 0-4.267v-93.867l200.533 213.333c17.067 17.067 51.2 17.067 68.267 0 17.067-25.6 17.067-55.467-4.267-76.8l-183.467-196.267zM840.533 17.067h-59.733c-25.6 0-51.2-25.6-46.933-51.2 0-25.6 21.333-46.933 46.933-46.933h192c25.6 0 46.933 21.333 46.933 51.2 0 0 0 0 0 0v200.533c0 25.6-21.333 46.933-46.933 51.2-25.6 0-46.933-21.333-51.2-46.933 0 0 0-4.267 0-4.267v-98.133l-200.533 213.333c-17.067 17.067-51.2 21.333-68.267 0-17.067-17.067-21.333-51.2 0-68.267 0 0 0 0 0 0l187.733-200.533z" />
<glyph unicode="&#xe93f;" glyph-name="gift" d="M921.6 708.267c21.333 8.533 34.133 34.133 29.867 55.467 0 59.733-42.667 123.733-157.867 123.733-42.667 0-72.533 8.533-153.6-51.2l29.867 42.667c12.8 17.067 8.533 42.667-8.533 55.467s-42.667 8.533-51.2-8.533c0 0 0 0 0 0l-98.133-145.067-68.267 132.267c-8.533 17.067-34.133 25.6-51.2 12.8 0 0 0 0 0 0-21.333-4.267-25.6-29.867-17.067-46.933l17.067-29.867c-51.2 21.333-106.667 34.133-162.133 34.133-38.4 0-76.8-8.533-110.933-34.133-29.867-17.067-46.933-51.2-51.2-85.333 0-21.333 12.8-46.933 34.133-55.467-34.133-12.8-76.8-38.4-76.8-72.533v-98.133c0-42.667 34.133-81.067 76.8-85.333v-456.533c0-42.667 34.133-76.8 76.8-76.8h665.6c42.667 0 76.8 34.133 76.8 76.8v456.533c42.667 4.267 76.8 42.667 76.8 85.333v98.133c-4.267 34.133-46.933 59.733-76.8 72.533zM874.667 763.734c4.267-29.867-17.067-51.2-46.933-55.467-4.267 0-8.533 0-12.8 0h-256c59.733 64 140.8 98.133 230.4 102.4 68.267-4.267 85.333-29.867 85.333-46.933zM102.4 631.467h358.4v-102.4h-358.4v102.4zM230.4 806.4c85.333-4.267 170.667-38.4 230.4-102.4h-256c-29.867 0-55.467 21.333-59.733 51.2 0 0 0 4.267 0 4.267 0 21.333 17.067 46.933 85.333 46.933zM179.2 452.267h281.6v-456.533h-281.6v456.533zM844.8-8.533h-307.2v460.8h307.2v-460.8zM921.6 524.8h-384v106.667h384v-106.667z" />
<glyph unicode="&#xe940;" glyph-name="globe" d="M512 934.4c-281.6 0-512-226.133-512-507.733s230.4-512 512-512 512 230.4 512 512c-4.267 281.6-230.4 507.733-512 507.733zM951.467 448h-162.133c-8.533 153.6-72.533 307.2-179.2 405.333 192-42.667 328.533-209.067 341.333-405.333zM465.067 819.2v-366.933h-162.133c4.267 140.8 64 285.867 162.133 366.933zM465.067 379.734v-341.333c-89.6 81.067-149.333 213.333-162.133 341.333h162.133zM533.333 25.6v354.133h187.733c-17.067-132.267-85.333-273.067-187.733-354.133zM533.333 448v379.733c110.933-81.067 179.2-230.4 187.733-379.733h-187.733zM396.8 853.334c-102.4-98.133-157.867-247.467-166.4-401.067h-157.867c8.533 187.733 140.8 349.867 324.267 401.067zM72.533 379.734h157.867c12.8-140.8 72.533-285.867 170.667-379.733-174.933 42.667-307.2 196.267-328.533 379.733zM601.6-4.266c106.667 102.4 170.667 238.933 183.467 384h162.133c-17.067-192-157.867-345.6-345.6-384z" />
<glyph unicode="&#xe941;" glyph-name="google" d="M1024 426.667c0-38.4-4.267-72.533-12.8-106.667-25.6-119.467-89.6-221.867-179.2-294.4-85.333-68.267-200.533-110.933-320-110.933-196.267 0-362.667 110.933-452.267 268.8-38.4 72.533-59.733 153.6-59.733 243.2 0 85.333 21.333 166.4 55.467 234.667 85.333 166.4 260.267 277.333 456.533 277.333 123.733 0 238.933-42.667 328.533-119.467l-166.4-136.533c-46.933 29.867-102.4 46.933-162.133 46.933-132.267 0-247.467-85.333-285.867-204.8v0c-12.8-29.867-17.067-64-17.067-98.133 0-38.4 8.533-72.533 21.333-106.667 42.667-115.2 153.6-196.267 285.867-196.267 55.467 0 106.667 17.067 153.6 42.667 59.733 34.133 106.667 89.6 132.267 157.867h-273.067v196.267h490.667c0-29.867 4.267-59.733 4.267-93.867z" />
<glyph unicode="&#xe942;" glyph-name="hangouts" d="M512 938.667c-234.667 0-426.667-187.733-426.667-426.667s187.733-426.667 426.667-426.667h25.6v-170.667c243.2 115.2 401.067 375.467 401.067 597.333 0 238.933-192 426.667-426.667 426.667zM486.4 490.667l-51.2-98.133h-72.533l51.2 98.133h-76.8v149.333h149.333v-149.333zM686.933 490.667l-51.2-98.133h-76.8l51.2 98.133h-76.8v149.333h149.333v-149.333z" />
<glyph unicode="&#xe943;" glyph-name="heart-circle" d="M512 938.667c-281.6 0-512-230.4-512-512s230.4-512 512-512 512 230.4 512 512c0 281.6-230.4 512-512 512zM512-17.066c-243.2 0-443.733 200.533-443.733 443.733s200.533 443.733 443.733 443.733 443.733-200.533 443.733-443.733-200.533-443.733-443.733-443.733v0zM597.333 584.534c-29.867-4.267-59.733-17.067-85.333-34.133-25.6 21.333-55.467 34.133-85.333 34.133-46.933 0-89.6-21.333-110.933-59.733-21.333-34.133-25.6-81.067-4.267-119.467 17.067-38.4 132.267-132.267 183.467-174.933 12.8-8.533 29.867-8.533 42.667 0 46.933 38.4 162.133 136.533 183.467 174.933 17.067 38.4 17.067 85.333-4.267 119.467-29.867 38.4-72.533 59.733-119.467 59.733zM652.8 435.2c-8.533-17.067-76.8-76.8-140.8-132.267-51.2 38.4-98.133 85.333-140.8 132.267-8.533 17.067-8.533 34.133 4.267 51.2 8.533 17.067 29.867 29.867 51.2 25.6 21.333-8.533 42.667-21.333 64-34.133 12.8-12.8 34.133-12.8 46.933 0 17.067 17.067 38.4 29.867 64 34.133 21.333 0 42.667-8.533 51.2-25.6s8.533-34.133 0-51.2v0z" />
<glyph unicode="&#xe944;" glyph-name="heart" d="M716.8 797.867c123.733 4.267 230.4-98.133 230.4-221.867 0-4.267 0-4.267 0-8.533 0-34.133-8.533-64-21.333-93.867-42.667-85.333-418.133-418.133-418.133-418.133s-375.467 337.067-418.133 418.133c-12.8 29.867-21.333 59.733-21.333 93.867-4.267 128 98.133 230.4 226.133 234.667 4.267 0 4.267 0 8.533 0 64 0 166.4-98.133 209.067-140.8 38.4 38.4 145.067 136.533 204.8 136.533zM716.8 870.4c-55.467 0-119.467-34.133-209.067-115.2-85.333 81.067-153.6 115.2-204.8 115.2-106.667 0-204.8-51.2-260.267-140.8-55.467-85.333-59.733-196.267-12.8-285.867 42.667-89.6 341.333-358.4 435.2-439.467 25.6-25.6 68.267-25.6 93.867 0 89.6 81.067 388.267 354.133 435.2 439.467 42.667 93.867 38.4 200.533-12.8 285.867-59.733 89.6-157.867 140.8-264.533 140.8v0 0z" />
<glyph unicode="&#xe945;" glyph-name="help" d="M512 938.667c-281.6 0-512-230.4-512-512s230.4-512 512-512 512 230.4 512 512c0 281.6-230.4 512-512 512zM797.867 763.734l-115.2-115.2c0 0 0 0 0 0-98.133 76.8-243.2 76.8-341.333 0 0 0 0 0 0 0l-115.2 115.2c162.133 140.8 409.6 140.8 571.733 0zM512 217.6c-115.2 0-209.067 93.867-209.067 209.067s93.867 209.067 209.067 209.067 209.067-93.867 209.067-209.067-93.867-209.067-209.067-209.067v0zM68.267 426.667c0 106.667 38.4 204.8 106.667 285.867l115.2-115.2c-76.8-102.4-76.8-243.2 0-341.333v0l-115.2-115.2c-68.267 81.067-106.667 179.2-106.667 285.867zM226.133 89.6l115.2 115.2c0 0 0 0 0 0 102.4-76.8 243.2-76.8 341.333 0 0 0 0 0 0 0l115.2-115.2c-162.133-140.8-409.6-140.8-571.733 0zM849.067 140.8l-115.2 115.2c76.8 102.4 76.8 243.2 0 341.333v0l115.2 115.2c140.8-162.133 140.8-409.6 0-571.733z" />
<glyph unicode="&#xe946;" glyph-name="home" d="M994.133 516.267l-439.467 375.467c-25.6 21.333-64 21.333-89.6 0l-439.467-375.467c-29.867-25.6-34.133-68.267-8.533-98.133 12.8-12.8 29.867-25.6 51.2-25.6v-375.467c0-38.4 29.867-68.267 68.267-72.533h746.667c38.4 0 68.267 29.867 68.267 72.533v375.467c38.4 0 68.267 34.133 68.267 72.533 0 21.333-8.533 38.4-25.6 51.2zM486.4 17.067h-46.933v209.067h140.8v-209.067h-93.867zM883.2 460.8v-443.733h-234.667v209.067c0 38.4-29.867 68.267-68.267 68.267 0 0 0 0 0 0h-140.8c-38.4 0-68.267-29.867-68.267-68.267 0 0 0 0 0 0v-209.067h-234.667v443.733h-68.267l443.733 375.467 439.467-375.467h-68.267z" />
<glyph unicode="&#xe947;" glyph-name="idea" d="M512 827.734c17.067 0 34.133 12.8 34.133 34.133v42.667c0 21.333-17.067 34.133-34.133 34.133s-34.133-12.8-34.133-34.133v-42.667c0-17.067 17.067-34.133 34.133-34.133zM968.533 524.8h-42.667c-17.067 0-34.133-12.8-34.133-34.133 0-17.067 12.8-34.133 34.133-34.133h42.667c17.067 0 34.133 12.8 34.133 34.133s-17.067 34.133-34.133 34.133zM132.267 490.667c0 17.067-12.8 34.133-34.133 34.133h-42.667c-17.067 0-34.133-12.8-34.133-34.133 0-17.067 12.8-34.133 34.133-34.133h42.667c17.067 4.267 34.133 17.067 34.133 34.133zM827.733 413.867c0 170.667-140.8 307.2-311.467 307.2-166.4 0-298.667-132.267-298.667-294.4 0 0 0-4.267 0-4.267-4.267-110.933 55.467-217.6 153.6-273.067-4.267-8.533-4.267-17.067-4.267-29.867v-68.267c0-76.8 51.2-136.533 123.733-136.533h42.667c72.533 0 132.267 59.733 136.533 132.267v64c0 12.8-4.267 25.6-8.533 34.133 102.4 55.467 166.4 157.867 166.4 268.8zM610.133 110.934v-21.333h-115.2c-17.067 0-34.133-12.8-34.133-34.133 0-17.067 12.8-34.133 34.133-34.133h110.933c-12.8-25.6-38.4-42.667-64-42.667h-42.667c-38.4 0-59.733 34.133-59.733 68.267v68.267l81.067-8.533h89.6zM516.267 174.934v0c-132.267 4.267-238.933 110.933-234.667 243.2 0 0 0 0 0 0 0 128 102.4 234.667 230.4 238.933 4.267 0 4.267 0 8.533 0 132.267 0 238.933-102.4 243.2-238.933 0-132.267-102.4-238.933-238.933-243.2-4.267 0-4.267 0-8.533 0v0zM516.267 601.6c-17.067 0-34.133-12.8-34.133-34.133 0-17.067 12.8-34.133 34.133-34.133 68.267 0 119.467-51.2 123.733-119.467 0-17.067 17.067-34.133 34.133-34.133s29.867 12.8 34.133 34.133c-4.267 106.667-85.333 187.733-192 187.733v0zM823.467 814.934l-34.133-34.133c-12.8-12.8-12.8-34.133 0-51.2 12.8-12.8 34.133-12.8 46.933 0 0 0 0 0 0 0l34.133 38.4c12.8 12.8 12.8 34.133 0 51.2-12.8 8.533-34.133 8.533-46.933-4.267 0 0 0 0 0 0v0zM170.667 819.2l34.133-34.133c12.8-12.8 17.067-38.4 0-51.2-12.8-17.067-34.133-17.067-46.933-4.267 0 0 0 0 0 0l-38.4 38.4c-12.8 12.8-12.8 38.4 0 51.2s38.4 12.8 51.2 0v0 0z" />
<glyph unicode="&#xe948;" glyph-name="image" d="M930.133 708.267l-196.267 196.267c-12.8 21.333-34.133 34.133-59.733 34.133h-533.333c-38.4 0-72.533-29.867-72.533-68.267v-883.2c0-38.4 29.867-68.267 68.267-68.267h742.4c34.133-4.267 64 17.067 68.267 51.2 0 4.267 0 12.8 0 17.067v648.533c8.533 25.6 0 51.2-17.067 72.533zM742.4 797.867l89.6-89.6h-89.6v89.6zM674.133 870.4c0 0 0-4.267 0 0v0l4.267-234.667h209.067v-247.467l-123.733 68.267c-12.8 8.533-34.133 4.267-42.667-8.533l-192-213.333-166.4 64c-12.8 4.267-25.6 0-38.4-8.533l-183.467-183.467v763.733h533.333zM140.8-12.8v21.333c0 0 0 0 0 0l217.6 217.6 166.4-59.733c12.8-4.267 29.867 0 38.4 8.533l192 209.067 132.267-76.8v-320h-746.667zM349.867 452.267c64 0 115.2 51.2 115.2 115.2s-51.2 115.2-115.2 115.2-115.2-51.2-115.2-115.2 51.2-115.2 115.2-115.2zM349.867 614.4c25.6 0 46.933-21.333 46.933-46.933s-21.333-46.933-46.933-46.933-46.933 21.333-46.933 46.933 21.333 46.933 46.933 46.933z" />
<glyph unicode="&#xe949;" glyph-name="increase" d="M998.4 345.6c0-21.333-17.067-42.667-42.667-42.667h-401.067v-247.467l42.667 51.2c0 0 0 0 0 0 17.067 17.067 42.667 12.8 55.467 0 17.067-17.067 17.067-42.667 0-59.733l-115.2-119.467c-17.067-17.067-42.667-12.8-55.467 0l-115.2 115.2c-8.533 8.533-12.8 17.067-12.8 29.867s4.267 21.333 12.8 29.867c0 0 0 0 0 0 17.067 17.067 42.667 12.8 55.467 0l51.2-51.2v247.467h-405.333c-21.333 0-42.667 21.333-42.667 42.667 0 25.6 4.267 38.4 25.6 38.4h887.467c25.6 4.267 59.733-12.8 59.733-34.133zM25.6 507.734c0 21.333 17.067 42.667 42.667 42.667h401.067v247.467l-42.667-51.2c0 0 0 0 0 0-17.067-17.067-42.667-12.8-55.467 0-17.067 21.333-17.067 46.933 0 64l115.2 119.467c17.067 17.067 42.667 12.8 55.467 0l115.2-119.467c8.533-8.533 12.8-17.067 12.8-29.867s-4.267-21.333-12.8-29.867c0 0 0 0 0 0-17.067-17.067-42.667-12.8-55.467 0l-51.2 51.2v-247.467h405.333c21.333 0 42.667-21.333 42.667-42.667 0-25.6-4.267-38.4-25.6-38.4h-891.733c-21.333-4.267-55.467 12.8-55.467 34.133z" />
<glyph unicode="&#xe94a;" glyph-name="instagram" d="M755.2 866.134c106.667 0 196.267-85.333 196.267-196.267v-486.4c0-106.667-85.333-196.267-196.267-196.267h-486.4c-106.667 0-196.267 85.333-196.267 196.267v486.4c0 106.667 85.333 196.267 196.267 196.267h486.4zM755.2 938.667h-486.4c-149.333 0-268.8-119.467-268.8-268.8v-486.4c0-149.333 119.467-268.8 268.8-268.8h486.4c149.333 0 268.8 119.467 268.8 268.8v486.4c0 149.333-119.467 268.8-268.8 268.8v0zM512 644.267c119.467 0 217.6-98.133 217.6-217.6s-98.133-217.6-217.6-217.6-217.6 98.133-217.6 217.6 98.133 217.6 217.6 217.6v0zM512 721.067c-162.133 0-294.4-132.267-294.4-294.4s132.267-294.4 294.4-294.4 294.4 132.267 294.4 294.4c0 162.133-132.267 294.4-294.4 294.4v0zM840.533 729.6c0-25.6-21.333-46.933-46.933-46.933s-46.933 21.333-46.933 46.933 21.333 46.933 46.933 46.933 46.933-17.067 46.933-46.933z" />
<glyph unicode="&#xe94b;" glyph-name="joystick" d="M725.333 392.534c21.333 0 34.133 17.067 34.133 34.133 0 21.333-17.067 34.133-34.133 34.133-21.333 0-34.133-17.067-34.133-34.133 0 0 0 0 0 0 0-21.333 17.067-34.133 34.133-34.133zM725.333 320c-21.333 0-34.133-17.067-34.133-34.133 0-21.333 17.067-34.133 34.133-34.133 21.333 0 34.133 17.067 34.133 34.133 4.267 17.067-12.8 34.133-34.133 34.133zM797.867 392.534c-21.333 0-34.133-17.067-34.133-34.133s17.067-34.133 34.133-34.133c21.333 0 34.133 17.067 34.133 34.133s-12.8 34.133-34.133 34.133zM657.067 392.534c-21.333 0-34.133-17.067-34.133-34.133s17.067-34.133 34.133-34.133 34.133 17.067 34.133 34.133-17.067 34.133-34.133 34.133zM947.2 426.667c0 4.267-4.267 8.533-4.267 17.067l-12.8 51.2c-38.4 72.533-110.933 115.2-192 110.933-38.4 4.267-81.067 0-119.467-12.8 0 34.133-25.6 64-59.733 68.267 0 21.333 38.4 59.733 153.6 59.733 76.8 0 128 21.333 157.867 64 25.6 38.4 29.867 85.333 17.067 128-4.267 17.067-25.6 29.867-42.667 21.333 0 0 0 0 0 0-17.067-8.533-29.867-25.6-21.333-46.933 4.267-21.333 4.267-42.667-8.533-64-21.333-25.6-68.267-34.133-102.4-34.133-221.867 0-226.133-128-226.133-132.267 0 0 0 0 0 0-34.133-4.267-59.733-34.133-59.733-68.267-34.133 12.8-68.267 21.333-106.667 17.067-106.667 4.267-200.533-72.533-221.867-174.933l-98.133-324.267v-21.333c0-93.867 72.533-166.4 166.4-170.667 29.867 0 59.733 8.533 85.333 25.6l4.267-4.267 34.133 38.4 157.867 179.2h149.333l132.267-187.733c29.867-34.133 76.8-55.467 128-51.2 93.867 0 166.4 76.8 166.4 170.667 0 8.533 0 12.8-76.8 341.333zM499.2 546.134v42.667h46.933v-42.667c0 0 0 0 4.267 0-8.533-8.533-17.067-17.067-21.333-25.6h-8.533c-8.533 8.533-17.067 17.067-21.333 25.6 0 0 0 0 0 0zM857.6-12.8c-25.6-4.267-51.2 4.267-72.533 25.6l-166.4 213.333h-192l-183.467-200.533c-17.067-21.333-46.933-34.133-72.533-34.133-51.2 0-93.867 42.667-93.867 98.133l93.867 324.267c8.533 72.533 68.267 123.733 140.8 119.467 68.267 0 145.067-34.133 166.4-93.867h93.867c21.333 64 93.867 93.867 166.4 93.867 132.267 0 145.067-149.333 140.8-123.733 0 0 72.533-324.267 72.533-328.533 0-51.2-42.667-93.867-93.867-93.867 0 0 0 0 0 0zM379.733 396.8h-46.933v46.933c0 21.333-17.067 34.133-34.133 34.133s-34.133-17.067-34.133-34.133v-46.933h-51.2c-21.333 0-34.133-17.067-34.133-34.133 0-21.333 17.067-34.133 34.133-34.133v0h46.933v-46.933c0-21.333 17.067-34.133 34.133-34.133s34.133 17.067 34.133 34.133v46.933h46.933c21.333 0 34.133 17.067 34.133 34.133 8.533 17.067-8.533 34.133-29.867 34.133z" />
<glyph unicode="&#xe94c;" glyph-name="key" d="M674.133 746.667c-85.333 0-153.6-68.267-153.6-153.6s68.267-153.6 153.6-153.6c85.333 0 153.6 68.267 153.6 153.6s-68.267 153.6-153.6 153.6zM674.133 516.267c-42.667 0-76.8 34.133-76.8 76.8s34.133 76.8 76.8 76.8c42.667 0 76.8-34.133 76.8-76.8s-34.133-76.8-76.8-76.8c0 0 0 0 0 0zM686.933 930.134c-183.467 0-337.067-149.333-337.067-332.8 0-34.133 4.267-64 12.8-93.867l-341.333-337.067c-29.867-29.867-29.867-76.8 0-106.667 0 0 0 0 0 0l106.667-110.933c29.867-29.867 81.067-29.867 110.933 0l72.533 72.533 21.333-21.333c29.867-29.867 81.067-29.867 110.933 0l76.8 76.8c29.867 29.867 29.867 76.8 0 106.667 0 0 0 0 0 0l-21.333 21.333 72.533 72.533c174.933-64 366.933 21.333 430.933 196.267s-21.333 366.933-196.267 435.2c-38.4 12.8-76.8 21.333-119.467 21.333v0zM686.933 337.067c-46.933 0-93.867 12.8-132.267 38.4l-162.133-166.4 76.8-76.8-76.8-76.8-76.8 76.8-128-128-102.4 102.4 375.467 375.467c-21.333 34.133-34.133 72.533-34.133 110.933 0 145.067 115.2 260.267 256 260.267s260.267-115.2 260.267-256c4.267-145.067-110.933-260.267-256-260.267 0 0 0 0 0 0v0z" />
<glyph unicode="&#xe94d;" glyph-name="lable" d="M1015.467 921.6c-12.8 12.8-34.133 12.8-51.2 0l-64-59.733c-4.267 0-12.8 4.267-17.067 4.267l-349.867 4.267c-17.067 0-38.4-8.533-51.2-21.333l-460.8-460.8c-25.6-25.6-25.6-68.267 0-98.133 0 0 0 0 0 0l354.133-345.6c25.6-25.6 72.533-25.6 98.133 0l469.333 456.533c12.8 12.8 21.333 29.867 21.333 46.933l-4.267 345.6c0 4.267 0 12.8-4.267 17.067l64 59.733c8.533 17.067 8.533 38.4-4.267 51.2 0 0 0 0 0 0zM891.733 448l-469.333-456.533-354.133 345.6 465.067 460.8h307.2l-106.667-106.667c-17.067 8.533-34.133 12.8-51.2 12.8-64 0-115.2-51.2-119.467-115.2 0-64 51.2-115.2 115.2-119.467 64 0 115.2 51.2 119.467 115.2 0 21.333-4.267 38.4-12.8 55.467l110.933 106.667-4.267-298.667zM725.333 588.8c0-25.6-21.333-46.933-46.933-42.667-25.6 0-46.933 21.333-42.667 46.933 0 25.6 21.333 42.667 46.933 42.667s42.667-21.333 42.667-46.933c0 0 0 0 0 0v0z" />
<glyph unicode="&#xe94e;" glyph-name="laptop" d="M128 157.867h768c42.667 0 76.8 34.133 76.8 76.8v0 486.4c0 42.667-34.133 76.8-76.8 76.8h-768c-42.667 0-76.8-34.133-76.8-76.8v-486.4c0-42.667 34.133-76.8 76.8-76.8v0zM128 721.067h768v-486.4h-768v486.4zM0 132.267v-76.8h1024v76.8h-1024z" />
<glyph unicode="&#xe94f;" glyph-name="lightning" d="M789.333 512c-12.8 21.333-34.133 29.867-55.467 29.867h-136.533v324.267c0 34.133-21.333 59.733-55.467 68.267-4.267 0-8.533 0-12.8 0-25.6 0-51.2-17.067-64-42.667l-209.067-482.133c-12.8-25.6-8.533-46.933 4.267-68.267s34.133-29.867 55.467-29.867h136.533v-324.267c0-34.133 21.333-59.733 55.467-68.267 4.267 0 8.533 0 12.8 0 25.6 0 51.2 17.067 64 42.667l204.8 486.4c12.8 21.333 12.8 42.667 0 64zM524.8-12.8v396.8h-209.067l204.8 486.4v-396.8h204.8l-200.533-486.4z" />
<glyph unicode="&#xe950;" glyph-name="link" d="M896 281.6l-110.933 110.933c-17.067 17.067-42.667 17.067-55.467 0 0 0 0 0 0 0-17.067-17.067-17.067-38.4 0-55.467 0 0 0 0 0 0l110.933-110.933c55.467-51.2 55.467-140.8 0-192 0 0 0 0 0 0-55.467-55.467-140.8-55.467-196.267 0l-209.067 209.067c-55.467 51.2-55.467 140.8 0 192 0 0 0 0 0 0 21.333 21.333 46.933 34.133 76.8 38.4 21.333 4.267 34.133 21.333 34.133 42.667 0 0 0 0 0 0-4.267 21.333-25.6 38.4-46.933 34.133-46.933-8.533-89.6-29.867-119.467-59.733-85.333-85.333-85.333-217.6 0-302.933 0 0 0 0 0 0l209.067-209.067c85.333-85.333 221.867-85.333 307.2 0 81.067 81.067 85.333 217.6 0 302.933 0 0 0 0 0 0zM187.733 627.2c-55.467 51.2-55.467 140.8 0 192 0 0 0 0 0 0 55.467 55.467 140.8 55.467 196.267 0l209.067-209.067c55.467-51.2 55.467-140.8 0-192-21.333-21.333-46.933-34.133-76.8-38.4-21.333-4.267-34.133-25.6-34.133-46.933 4.267-17.067 21.333-34.133 38.4-34.133 0 0 4.267 0 4.267 0 46.933 8.533 89.6 29.867 119.467 59.733 85.333 81.067 85.333 217.6 0 302.933 0 0 0 0 0 0l-209.067 209.067c-85.333 85.333-221.867 85.333-307.2 0-85.333-81.067-85.333-217.6 0-302.933 0 0 0 0 0 0l110.933-110.933c17.067-17.067 38.4-17.067 55.467 0s17.067 38.4 0 55.467c0 0 0 0 0 0l-106.667 115.2z" />
<glyph unicode="&#xe951;" glyph-name="linkedin" d="M1024 315.734v-379.733h-217.6v354.133c0 89.6-29.867 149.333-110.933 149.333-59.733 0-98.133-42.667-110.933-81.067-4.267-12.8-8.533-34.133-8.533-55.467v-366.933h-221.867c0 0 4.267 597.333 0 661.333h217.6v-93.867c0 0 0 0 0 0v0 0c29.867 46.933 81.067 110.933 196.267 110.933 149.333 0 256-93.867 256-298.667zM123.733 917.334c-72.533 0-123.733-51.2-123.733-115.2s46.933-115.2 119.467-115.2v0c76.8 0 123.733 51.2 123.733 115.2 4.267 64-42.667 115.2-119.467 115.2zM12.8-64h217.6v661.333h-217.6v-661.333z" />
<glyph unicode="&#xe952;" glyph-name="list" d="M46.933 814.934h930.133c25.6 0 46.933 21.333 46.933 46.933s-21.333 46.933-46.933 46.933h-930.133c-25.6 0-46.933-21.333-46.933-46.933s21.333-46.933 46.933-46.933zM46.933 597.334h588.8c25.6 0 46.933 21.333 46.933 46.933s-21.333 46.933-46.933 46.933h-588.8c-25.6 0-46.933-21.333-46.933-46.933s21.333-46.933 46.933-46.933zM46.933 379.734h870.4c25.6 0 46.933 21.333 46.933 46.933s-21.333 46.933-46.933 46.933h-870.4c-25.6 0-46.933-21.333-46.933-46.933s21.333-46.933 46.933-46.933zM46.933 162.134h776.533c25.6 0 46.933 21.333 46.933 46.933s-21.333 46.933-46.933 46.933h-776.533c-25.6 0-46.933-21.333-46.933-46.933s21.333-46.933 46.933-46.933zM977.067 38.4h-930.133c-25.6 0-46.933-21.333-46.933-46.933s21.333-46.933 46.933-46.933h930.133c25.6 0 46.933 21.333 46.933 46.933s-21.333 46.933-46.933 46.933z" />
<glyph unicode="&#xe953;" glyph-name="loading" d="M512 819.2c85.333 0 166.4-25.6 234.667-76.8l-106.667-12.8c-21.333-4.267-38.4-25.6-34.133-46.933 4.267-17.067 17.067-34.133 38.4-34.133 0 0 4.267 0 4.267 0l183.467 25.6c21.333 4.267 38.4 21.333 34.133 42.667 0 0 0 0 0 0l-25.6 183.467c-4.267 21.333-25.6 34.133-46.933 34.133-21.333-4.267-34.133-21.333-34.133-42.667l8.533-72.533c-217.6 145.067-512 85.333-657.067-132.267-81.067-123.733-102.4-273.067-55.467-413.867l72.533 68.267c-46.933 213.333 85.333 422.4 298.667 469.333 25.6 8.533 55.467 8.533 85.333 8.533zM960 576l-64-64c46.933-213.333-89.6-422.4-298.667-469.333-110.933-25.6-230.4 0-324.267 72.533l85.333 12.8c21.333 4.267 38.4 21.333 34.133 42.667s-21.333 38.4-42.667 34.133l-183.467-25.6c-21.333-4.267-38.4-21.333-34.133-42.667l25.6-183.467c0-25.6 17.067-38.4 38.4-38.4 0 0 4.267 0 4.267 0 21.333 4.267 38.4 21.333 34.133 42.667 0 0 0 0 0 0l-12.8 93.867c204.8-162.133 503.467-123.733 661.333 81.067 98.133 128 128 294.4 76.8 443.733z" />
<glyph unicode="&#xe954;" glyph-name="location" d="M512 938.667c-230.4-4.267-413.867-192-418.133-418.133 4.267-68.267 21.333-132.267 55.467-192 0 0 0-4.267 4.267-4.267 251.733-409.6 324.267-409.6 358.4-409.6 51.2 0 106.667 34.133 234.667 217.6 68.267 93.867 123.733 187.733 128 192 0 0 4.267 4.267 4.267 4.267 34.133 59.733 51.2 123.733 55.467 192-8.533 226.133-192 413.867-422.4 418.133zM814.933 358.4c0 0-230.4-371.2-302.933-371.2-68.267 0-302.933 371.2-302.933 371.2-25.6 51.2-42.667 106.667-46.933 162.133 0 192 157.867 349.867 349.867 349.867s349.867-157.867 349.867-349.867c-4.267-59.733-21.333-110.933-46.933-162.133zM512 729.6c-102.4 0-187.733-85.333-187.733-187.733s85.333-187.733 187.733-187.733 187.733 85.333 187.733 187.733c0 102.4-85.333 187.733-187.733 187.733zM512 426.667c-64 0-115.2 51.2-115.2 115.2s51.2 115.2 115.2 115.2 115.2-51.2 115.2-115.2-51.2-115.2-115.2-115.2z" />
<glyph unicode="&#xe955;" glyph-name="locked" d="M861.867 563.2h-76.8v102.4c0 149.333-119.467 273.067-273.067 273.067s-273.067-123.733-273.067-273.067v-98.133h-76.8c-42.667 0-76.8-34.133-76.8-76.8v-499.2c0-42.667 34.133-76.8 76.8-76.8h699.733c42.667 0 76.8 34.133 76.8 76.8v499.2c0 38.4-34.133 72.533-76.8 72.533zM311.467 665.6c0 110.933 89.6 200.533 200.533 200.533s200.533-89.6 200.533-200.533v-98.133h-401.067v98.133zM861.867-8.533h-699.733v499.2h699.733v-499.2zM524.8 115.2c64 0 110.933 51.2 110.933 110.933s-51.2 115.2-110.933 115.2-110.933-51.2-110.933-110.933c0-64 46.933-115.2 110.933-115.2zM524.8 264.534c21.333 0 38.4-17.067 38.4-38.4s-17.067-38.4-38.4-38.4-38.4 17.067-38.4 38.4c0 21.333 17.067 38.4 38.4 38.4z" />
<glyph unicode="&#xe956;" glyph-name="mail" d="M951.467 819.2h-883.2c-38.4 0-68.267-29.867-68.267-68.267v-648.533c0-38.4 29.867-68.267 68.267-68.267h883.2c38.4 0 68.267 29.867 68.267 68.267v648.533c0 38.4-29.867 68.267-68.267 68.267zM951.467 149.334l-183.467 187.733c-12.8 12.8-34.133 12.8-51.2 0-12.8-12.8-12.8-34.133 0-46.933l183.467-183.467h-780.8l183.467 183.467c12.8 12.8 12.8 34.133 0 51.2-12.8 12.8-34.133 12.8-51.2 0 0 0 0 0 0 0l-183.467-183.467v439.467l418.133-315.733c4.267-4.267 12.8-8.533 21.333-8.533s12.8 4.267 21.333 8.533l422.4 315.733v-448zM951.467 750.934v-68.267l-443.733-328.533-439.467 328.533v68.267h883.2z" />
<glyph unicode="&#xe957;" glyph-name="map" d="M968.533 840.534l-238.933 93.867c-8.533 4.267-17.067 4.267-25.6 4.267-12.8 0-25.6-4.267-34.133-8.533-12.8 4.267-25.6 8.533-38.4 8.533-8.533 0-17.067 0-25.6-4.267l-238.933-93.867c-4.267 0-4.267-4.267-8.533-4.267s-4.267 4.267-8.533 4.267l-238.933 93.867c-8.533 4.267-17.067 4.267-25.6 4.267-17.067 0-29.867-4.267-42.667-12.8-17.067-12.8-29.867-34.133-29.867-59.733v-785.067c0-29.867 17.067-55.467 46.933-68.267l238.933-93.867c4.267-4.267 12.8-4.267 21.333-4.267 12.8 0 25.6 4.267 34.133 8.533 12.8-4.267 25.6-8.533 38.4-8.533 8.533 0 17.067 0 25.6 4.267l238.933 93.867c4.267 0 4.267 4.267 8.533 4.267s4.267-4.267 8.533-4.267l238.933-93.867c8.533-4.267 17.067-4.267 25.6-4.267 12.8 0 29.867 4.267 38.4 12.8 21.333 12.8 29.867 34.133 29.867 59.733v785.067c4.267 29.867-12.8 55.467-38.4 68.267zM85.333 81.067v785.067l238.933-93.867v-785.067l-238.933 93.867zM392.533-12.8v785.067l238.933 93.867v-785.067l-238.933-93.867zM938.667-12.8l-238.933 93.867v785.067l238.933-93.867v-785.067z" />
<glyph unicode="&#xe958;" glyph-name="menu-circle" d="M1019.733 477.867c-25.6 260.267-243.2 460.8-507.733 460.8-17.067 0-34.133 0-51.2-4.267-281.6-25.6-486.4-277.333-456.533-558.933 25.6-260.267 243.2-460.8 507.733-460.8 17.067 0 34.133 0 51.2 4.267 281.6 25.6 486.4 277.333 456.533 558.933 0 0 0 0 0 0zM554.667-12.8c-12.8 0-29.867 0-42.667 0-243.2-4.267-443.733 196.267-443.733 439.467 0 226.133 170.667 418.133 401.067 439.467 12.8 0 29.867 0 42.667 0 243.2 0 443.733-196.267 443.733-443.733 0-221.867-174.933-413.867-401.067-435.2v0zM733.867 448h-443.733c-21.333 0-34.133-17.067-34.133-34.133s17.067-34.133 34.133-34.133h443.733c21.333 0 34.133 17.067 34.133 34.133 0 21.333-17.067 34.133-34.133 34.133 0 0 0 0 0 0v0zM733.867 588.8h-443.733c-21.333 0-34.133-12.8-34.133-34.133s17.067-34.133 34.133-34.133h443.733c17.067 0 34.133 12.8 34.133 34.133 0 17.067-17.067 34.133-34.133 34.133 0 0 0 0 0 0v0zM733.867 311.467h-443.733c-21.333 0-34.133-17.067-34.133-34.133 0-21.333 17.067-34.133 34.133-34.133h443.733c21.333 0 34.133 17.067 34.133 34.133s-17.067 34.133-34.133 34.133c0 0 0 0 0 0v0z" />
<glyph unicode="&#xe959;" glyph-name="menu" d="M46.933 699.734h930.133c25.6 0 46.933 21.333 46.933 46.933s-21.333 46.933-46.933 46.933h-930.133c-25.6 0-46.933-21.333-46.933-46.933s21.333-46.933 46.933-46.933zM977.067 482.134h-930.133c-25.6 0-46.933-21.333-46.933-46.933s21.333-46.933 46.933-46.933h930.133c25.6 0 46.933 21.333 46.933 46.933s-21.333 46.933-46.933 46.933zM977.067 170.667h-930.133c-25.6 0-46.933-21.333-46.933-46.933s21.333-46.933 46.933-46.933h930.133c25.6 0 46.933 21.333 46.933 46.933s-21.333 46.933-46.933 46.933z" />
<glyph unicode="&#xe95a;" glyph-name="message" d="M814.933 823.467c76.8 0 140.8-64 140.8-140.8v-371.2c0-76.8-64-140.8-140.8-140.8h-426.667l-157.867-140.8v140.8h-21.333c-76.8 0-140.8 64-140.8 140.8v371.2c0 76.8 64 140.8 140.8 140.8h605.867zM814.933 891.734h-605.867c-115.2 0-209.067-93.867-209.067-209.067v-371.2c0-98.133 68.267-183.467 162.133-204.8v-76.8c0-25.6 17.067-51.2 42.667-64 8.533-4.267 17.067-4.267 29.867-4.267 17.067 0 34.133 4.267 46.933 17.067l136.533 123.733h396.8c115.2 0 209.067 93.867 209.067 209.067v371.2c0 115.2-93.867 209.067-209.067 209.067v0zM546.133 494.934c0-21.333-17.067-34.133-34.133-34.133s-34.133 17.067-34.133 34.133 17.067 34.133 34.133 34.133 34.133-12.8 34.133-34.133zM780.8 494.934c0-21.333-17.067-34.133-34.133-34.133-21.333 0-34.133 17.067-34.133 34.133s17.067 34.133 34.133 34.133c17.067 4.267 34.133-12.8 34.133-34.133zM315.733 494.934c0-21.333-17.067-34.133-34.133-34.133s-34.133 17.067-34.133 34.133 17.067 34.133 34.133 34.133 34.133-12.8 34.133-34.133z" />
<glyph unicode="&#xe95b;" glyph-name="messenger" d="M196.267-85.333c-12.8 0-29.867 4.267-42.667 12.8-25.6 17.067-38.4 42.667-38.4 68.267v119.467c-85.333 106.667-123.733 243.2-102.4 384 29.867 221.867 213.333 405.333 435.2 435.2 157.867 21.333 311.467-29.867 422.4-140.8s166.4-264.533 149.333-422.4c-25.6-226.133-209.067-413.867-435.2-443.733-89.6-12.8-183.467 0-268.8 38.4l-81.067-42.667c-12.8-4.267-25.6-8.533-38.4-8.533zM452.267 861.867c-187.733-25.6-345.6-179.2-371.2-371.2-17.067-123.733 17.067-243.2 98.133-337.067 4.267-8.533 8.533-12.8 8.533-21.333v-132.267c0-4.267 4.267-8.533 4.267-8.533s4.267-4.267 8.533 0l98.133 46.933c8.533 4.267 21.333 4.267 29.867 0 76.8-34.133 157.867-46.933 243.2-38.4 196.267 25.6 354.133 187.733 375.467 379.733 17.067 136.533-29.867 264.533-128 362.667-98.133 93.867-230.4 136.533-366.933 119.467zM448 900.267v0 0zM260.267 315.734l166.4 238.933c8.533 12.8 21.333 17.067 34.133 8.533l110.933-85.333c8.533-4.267 17.067-4.267 25.6 0l136.533 98.133c21.333 12.8 42.667-8.533 34.133-29.867l-136.533-234.667c-4.267-12.8-21.333-17.067-34.133-8.533l-149.333 89.6c-8.533 4.267-17.067 4.267-21.333 0l-136.533-106.667c-21.333-12.8-42.667 8.533-29.867 29.867z" />
<glyph unicode="&#xe95c;" glyph-name="mobile" d="M814.933 776.534c0 89.6-72.533 162.133-162.133 162.133h-281.6c-89.6 0-162.133-72.533-162.133-162.133v-699.733c0-89.6 72.533-162.133 162.133-162.133h277.333c89.6 0 162.133 72.533 162.133 162.133v699.733zM277.333 729.6h465.067v-558.933h-465.067v558.933zM371.2 870.4h277.333c42.667 0 81.067-29.867 89.6-68.267h-456.533c12.8 38.4 46.933 68.267 89.6 68.267zM652.8-17.066h-281.6c-51.2 0-93.867 42.667-93.867 93.867v21.333h465.067v-21.333c4.267-51.2-38.4-93.867-89.6-93.867zM499.2 76.8c-21.333 0-34.133-17.067-34.133-34.133s17.067-34.133 34.133-34.133 34.133 17.067 34.133 34.133-12.8 34.133-34.133 34.133z" />
<glyph unicode="&#xe95d;" glyph-name="money-bag" d="M512 315.734c-21.333 0-42.667 17.067-42.667 38.4 0 12.8 4.267 21.333 12.8 29.867 17.067 17.067 42.667 17.067 59.733 0 8.533-8.533 12.8-17.067 12.8-29.867 0-21.333 17.067-34.133 34.133-34.133s34.133 17.067 34.133 34.133c0 51.2-34.133 98.133-85.333 106.667v21.333c0 21.333-17.067 34.133-34.133 34.133s-34.133-17.067-34.133-34.133v-29.867c-12.8-4.267-21.333-12.8-29.867-21.333-42.667-42.667-42.667-115.2 0-157.867 21.333-21.333 46.933-34.133 76.8-34.133 25.6 0 51.2-21.333 51.2-51.2 0-12.8-4.267-25.6-12.8-34.133-8.533-4.267-12.8-12.8-21.333-12.8s-12.8 0-21.333 0c-25.6 4.267-42.667 29.867-38.4 51.2 0 17.067-12.8 34.133-29.867 38.4s-34.133-12.8-38.4-29.867c0 0 0 0 0 0-4.267-51.2 25.6-102.4 72.533-119.467 0-17.067 17.067-34.133 38.4-29.867 12.8 0 25.6 8.533 29.867 25.6 64 12.8 106.667 72.533 93.867 136.533-21.333 59.733-68.267 102.4-128 102.4zM951.467 102.4c-8.533 102.4-59.733 430.933-260.267 554.667 0 0 0 0 0 0l68.267 187.733c12.8 34.133-4.267 76.8-42.667 89.6 0 0-8.533 4.267-17.067 4.267h-375.467c-38.4 0-68.267-34.133-68.267-72.533 0-8.533 0-17.067 4.267-25.6l68.267-187.733c0 0 0 0 0 0-200.533-128-251.733-452.267-260.267-554.667 0-46.933 17.067-98.133 46.933-136.533 29.867-29.867 76.8-46.933 119.467-46.933h550.4c42.667-4.267 89.6 12.8 119.467 46.933 34.133 38.4 51.2 89.6 46.933 140.8zM324.267 866.134h371.2l-68.267-183.467h-230.4l-72.533 183.467zM785.067-17.066h-546.133c-55.467 0-102.4 38.4-98.133 93.867 17.067 192 89.6 460.8 256 533.333h234.667c162.133-76.8 238.933-341.333 256-533.333 0-51.2-46.933-93.867-102.4-93.867z" />
<glyph unicode="&#xe95e;" glyph-name="money-box" d="M768 546.134c-17.067 0-29.867-12.8-29.867-29.867s12.8-29.867 29.867-29.867c17.067 0 29.867 12.8 29.867 29.867s-12.8 29.867-29.867 29.867c0 0 0 0 0 0zM938.667 571.734c-34.133 81.067-102.4 140.8-200.533 174.933l25.6 85.333c4.267 17.067-4.267 34.133-21.333 38.4-8.533 4.267-17.067 0-21.333 0l-209.067-98.133c-238.933-4.267-401.067-123.733-409.6-307.2-29.867 8.533-42.667 0-42.667 21.333 4.267 17.067 12.8 34.133 29.867 46.933 12.8 12.8 12.8 34.133 0 42.667-12.8 12.8-29.867 12.8-42.667 0-29.867-29.867-46.933-68.267-46.933-110.933 0-59.733 55.467-59.733 102.4-59.733 12.8-85.333 85.333-149.333 140.8-192v-106.667c0-59.733 46.933-106.667 102.4-106.667h55.467c46.933 0 85.333 34.133 98.133 76.8 12.8 0 25.6 0 34.133 0 12.8 0 25.6 0 34.133 0 12.8-42.667 55.467-72.533 98.133-76.8h68.267c55.467 0 98.133 42.667 98.133 93.867 0 0 0 4.267 0 4.267v102.4c38.4 29.867 64 64 85.333 106.667 55.467 4.267 98.133 46.933 98.133 102.4v59.733c8.533 51.2-29.867 93.867-76.8 102.4v0zM960 409.6c0-25.6-17.067-42.667-38.4-46.933h-42.667c-17.067-59.733-46.933-85.333-102.4-123.733v-145.067c0-21.333-12.8-38.4-34.133-42.667 0 0-4.267 0-4.267 0h-68.267c-25.6 4.267-42.667 21.333-42.667 46.933v42.667c-29.867-8.533-64-8.533-93.867-8.533s-64 4.267-93.867 12.8v-42.667c0-25.6-17.067-42.667-42.667-46.933h-55.467c-25.6 4.267-42.667 21.333-42.667 46.933v136.533c-76.8 55.467-140.8 110.933-140.8 204.8 0 157.867 149.333 251.733 328.533 264.533 42.667 0 192 76.8 192 76.8l-42.667-140.8c-4.267-17.067 4.267-34.133 21.333-38.4 4.267 0 4.267 0 8.533 0 12.8 0 25.6 8.533 29.867 21.333l17.067 64c81.067-29.867 145.067-98.133 162.133-183.467h42.667c21.333 0 42.667-17.067 42.667-38.4 0 0 0 0 0 0v-59.733z" />
<glyph unicode="&#xe95f;" glyph-name="moon" d="M1002.667 238.934c0 8.533-4.267 17.067-12.8 25.6-17.067 17.067-34.133 17.067-51.2 8.533-46.933-21.333-98.133-34.133-149.333-34.133-64 0-123.733 17.067-179.2 46.933s-98.133 76.8-128 128c-29.867 55.467-46.933 115.2-46.933 179.2 0 51.2 8.533 98.133 29.867 140.8s46.933 85.333 85.333 119.467c17.067 17.067 21.333 34.133 12.8 55.467-12.8 21.333-29.867 29.867-51.2 29.867-68.267-4.267-132.267-17.067-192-46.933-59.733-25.6-110.933-64-157.867-106.667s-76.8-102.4-102.4-162.133c-25.6-59.733-38.4-128-38.4-196.267s12.8-136.533 42.667-200.533c25.6-64 64-119.467 110.933-162.133s102.4-81.067 162.133-110.933c64-25.6 128-42.667 200.533-42.667 98.133 0 192 25.6 277.333 81.067s149.333 128 187.733 217.6c4.267 4.267 4.267 12.8 4.267 17.067-4.267 8.533-4.267 12.8-4.267 12.8zM533.333 8.534c-55.467 0-110.933 12.8-162.133 34.133s-98.133 51.2-132.267 89.6c-38.4 38.4-68.267 81.067-89.6 132.267s-34.133 106.667-34.133 162.133c0 93.867 29.867 174.933 85.333 251.733 51.2 68.267 119.467 119.467 200.533 145.067-42.667-72.533-64-145.067-64-226.133s21.333-157.867 59.733-226.133c38.4-68.267 93.867-123.733 162.133-162.133s145.067-59.733 226.133-59.733c21.333 0 38.4 0 59.733 4.267-38.4-42.667-81.067-76.8-136.533-102.4-51.2-29.867-110.933-42.667-174.933-42.667z" />
<glyph unicode="&#xe960;" glyph-name="music" d="M925.867 930.134c-8.533 8.533-21.333 8.533-34.133 8.533l-507.733-162.133c-21.333-8.533-34.133-29.867-34.133-51.2v-512c-51.2 12.8-106.667 8.533-157.867-8.533-38.4-17.067-72.533-46.933-93.867-81.067-38.4-64-17.067-145.067 42.667-183.467 12.8-8.533 25.6-12.8 38.4-17.067 17.067-4.267 34.133-8.533 51.2-8.533 25.6 0 51.2 4.267 76.8 17.067 72.533 29.867 123.733 119.467 123.733 200.533v593.067l430.933 119.467v-477.867c-8.533 4.267-17.067 8.533-29.867 12.8-85.333 21.333-174.933-17.067-221.867-89.6-21.333-38.4-25.6-81.067-8.533-119.467 25.6-55.467 81.067-89.6 140.8-85.333 25.6 0 51.2 4.267 76.8 17.067 42.667 17.067 123.733 81.067 123.733 136.533v661.333c0 12.8-4.267 21.333-17.067 29.867zM277.333 4.267c-21.333-8.533-46.933-12.8-72.533-4.267-29.867 4.267-46.933 34.133-42.667 59.733 0 8.533 4.267 12.8 8.533 21.333 12.8 21.333 34.133 38.4 55.467 46.933 12.8 4.267 29.867 8.533 46.933 8.533 25.6 4.267 51.2-8.533 64-34.133 12.8-34.133-12.8-76.8-59.733-98.133v0zM844.8 217.6c-12.8-21.333-34.133-38.4-55.467-46.933-46.933-21.333-98.133-8.533-110.933 25.6-4.267 17.067-4.267 34.133 4.267 51.2 12.8 21.333 34.133 38.4 55.467 46.933 12.8 4.267 29.867 8.533 46.933 8.533 8.533 0 17.067 0 25.6-4.267 17.067-4.267 29.867-17.067 38.4-29.867v0c8.533-17.067 8.533-38.4-4.267-51.2v0z" />
<glyph unicode="&#xe961;" glyph-name="navigation" d="M998.4 917.334c-12.8 12.8-34.133 21.333-51.2 21.333-8.533 0-21.333-4.267-29.867-4.267l-870.4-392.533c-29.867-12.8-46.933-42.667-42.667-72.533s25.6-55.467 55.467-64l345.6-85.333 106.667-349.867c8.533-29.867 34.133-51.2 64-51.2h4.267c29.867 0 55.467 17.067 68.267 42.667l362.667 874.667c12.8 29.867 8.533 59.733-12.8 81.067zM584.533-8.533l-119.467 388.267-384 93.867 870.4 392.533-366.933-874.667z" />
<glyph unicode="&#xe962;" glyph-name="odnoklassniki" d="M512 938.667c-140.8 0-256-115.2-256-256s115.2-256 256-256 256 115.2 256 256-115.2 256-256 256zM512 554.667c-72.533 0-128 55.467-128 128s55.467 128 128 128 128-55.467 128-128-55.467-128-128-128zM853.333 435.2c-25.6 25.6-64 25.6-89.6 0-136.533-136.533-362.667-136.533-499.2 0-25.6 25.6-64 25.6-89.6 0s-25.6-68.267-4.267-93.867c81.067-81.067 179.2-123.733 285.867-136.533l-183.467-183.467c-25.6-25.6-25.6-64 0-89.6s64-25.6 89.6 0l145.067 145.067 145.067-145.067c12.8-12.8 29.867-17.067 46.933-17.067s34.133 4.267 46.933 17.067c25.6 25.6 25.6 64 0 89.6l-183.467 183.467c102.4 12.8 204.8 55.467 285.867 136.533 25.6 25.6 25.6 68.267 4.267 93.867z" />
<glyph unicode="&#xe963;" glyph-name="package" d="M981.333 699.734c0 4.267 0 8.533-4.267 12.8-4.267 8.533-8.533 12.8-17.067 12.8l-439.467 213.333c-8.533 4.267-17.067 4.267-21.333 0l-443.733-213.333c-8.533-8.533-12.8-17.067-12.8-25.6v0c0 0 0 0 0 0v-541.867c0-8.533 4.267-17.067 12.8-21.333l443.733-213.333c0 0 0 0 0 0s0 0 0 0 0 0 0 0 0 0 0 0 0 0 0 0 0 0 4.267 0c0 0 0 0 0 0s0 0 4.267 0c0 0 0 0 4.267 0 0 0 0 0 0 0s0 0 4.267 0c0 0 0 0 0 0s0 0 0 0 0 0 0 0 0 0 0 0 0 0 0 0l443.733 217.6c8.533 4.267 12.8 12.8 12.8 21.333l8.533 537.6c0-4.267 0-4.267 0 0zM512 883.2l384-187.733-140.8-68.267-384 187.733 140.8 68.267zM512 512l-384 183.467 183.467 89.6 384-187.733-183.467-85.333zM93.867 657.067l392.533-192v-482.133l-392.533 192v482.133zM537.6-17.066v482.133l183.467 89.6v-128c0-12.8 12.8-25.6 25.6-25.6s25.6 12.8 25.6 25.6v153.6l157.867 76.8v-482.133l-392.533-192z" />
<glyph unicode="&#xe964;" glyph-name="percent" d="M512 938.667c-281.6 0-512-230.4-512-512s230.4-512 512-512 512 230.4 512 512v0c0 281.6-230.4 512-512 512zM512-17.066c-243.2 0-443.733 200.533-443.733 443.733s200.533 443.733 443.733 443.733 443.733-200.533 443.733-443.733-200.533-443.733-443.733-443.733v0zM443.733 567.467c0 64-55.467 115.2-119.467 115.2s-115.2-51.2-115.2-115.2 51.2-115.2 115.2-115.2 119.467 51.2 119.467 115.2zM277.333 567.467c0 25.6 21.333 46.933 46.933 46.933s46.933-21.333 46.933-46.933-21.333-46.933-46.933-46.933-46.933 21.333-46.933 46.933zM652.8 358.4c-64 0-115.2-51.2-115.2-115.2s51.2-115.2 115.2-115.2 115.2 51.2 115.2 115.2-51.2 115.2-115.2 115.2zM652.8 192c-25.6 0-46.933 21.333-46.933 46.933s21.333 46.933 46.933 46.933 46.933-21.333 46.933-46.933c0-25.6-21.333-46.933-46.933-46.933zM746.667 661.334c-12.8 12.8-34.133 12.8-51.2 0 0 0 0 0 0 0l-439.467-443.733c-12.8-12.8-12.8-34.133 0-51.2 12.8-12.8 34.133-12.8 51.2 0 0 0 0 0 0 0l439.467 443.733c12.8 17.067 12.8 38.4 0 51.2z" />
<glyph unicode="&#xe965;" glyph-name="phone" d="M998.4 183.467l-128 128c-34.133 34.133-93.867 34.133-128 0l-59.733-59.733c-25.6-25.6-68.267-25.6-98.133 0l-251.733 251.733c-25.6 25.6-25.6 68.267 0 98.133 8.533 8.533 34.133 34.133 59.733 59.733 34.133 34.133 34.133 93.867 0 128l-128 128c-34.133 34.133-93.867 34.133-128 0-21.333-29.867-29.867-38.4-42.667-51.2-128-128-128-332.8 0-460.8l396.8-396.8c128-128 332.8-128 460.8 0l46.933 46.933c34.133 34.133 34.133 93.867 0 128zM183.467 870.4c12.8 12.8 29.867 12.8 42.667 0l128-128c12.8-12.8 12.8-29.867 0-42.667l-21.333-21.333-170.667 170.667 21.333 21.333zM533.333 51.2l-396.8 396.8c-98.133 98.133-102.4 251.733-17.067 358.4l170.667-170.667c-42.667-51.2-42.667-128 4.267-174.933l251.733-251.733c0 0 0 0 0 0 46.933-46.933 123.733-51.2 174.933-4.267l170.667-170.667c-106.667-85.333-260.267-81.067-358.4 17.067zM955.733 98.134l-21.333-21.333-170.667 170.667 21.333 21.333c12.8 12.8 29.867 12.8 42.667 0l128-128c12.8-12.8 12.8-29.867 0-42.667z" />
<glyph unicode="&#xe966;" glyph-name="pinterest" d="M904.533 652.8c-29.867 200.533-230.4 307.2-443.733 281.6-170.667-17.067-341.333-157.867-345.6-354.133-4.267-119.467 29.867-209.067 145.067-234.667 51.2 89.6-17.067 106.667-25.6 170.667-42.667 260.267 298.667 435.2 477.867 256 123.733-123.733 42.667-512-157.867-469.333-192 38.4 93.867 345.6-59.733 405.333-123.733 46.933-192-153.6-132.267-251.733-34.133-170.667-106.667-328.533-76.8-541.867 98.133 72.533 128 204.8 157.867 345.6 46.933-29.867 76.8-59.733 136.533-64 230.4-17.067 358.4 230.4 324.267 456.533z" />
<glyph unicode="&#xe967;" glyph-name="plane" d="M512 861.867c17.067 0 34.133-8.533 46.933-25.6 17.067-21.333 25.6-46.933 25.6-72.533v-192l290.133-217.6v-72.533l-315.733 119.467v-264.533l119.467-98.133v-46.933l-170.667 46.933-170.667-46.933v46.933l119.467 98.133v264.533l-315.733-119.467v72.533l290.133 217.6v196.267c0 25.6 8.533 51.2 25.6 72.533 21.333 12.8 38.4 21.333 55.467 21.333zM512 934.4c-38.4 0-72.533-17.067-98.133-46.933-29.867-29.867-46.933-76.8-46.933-119.467v-157.867l-260.267-196.267c-17.067-12.8-29.867-34.133-29.867-59.733v-72.533c0-38.4 34.133-72.533 72.533-72.533 8.533 0 17.067 0 25.6 4.267l217.6 85.333v-128l-93.867-76.8c-17.067-12.8-25.6-34.133-25.6-55.467v-46.933c0-38.4 34.133-72.533 72.533-72.533 8.533 0 12.8 0 21.333 4.267l149.333 42.667 149.333-42.667c8.533 0 12.8-4.267 21.333-4.267 38.4 0 72.533 34.133 72.533 72.533v46.933c0 21.333-8.533 42.667-25.6 55.467l-102.4 76.8v128l217.6-81.067c8.533-4.267 17.067-4.267 25.6-4.267 38.4 0 72.533 34.133 72.533 72.533v72.533c0 21.333-12.8 42.667-29.867 59.733l-260.267 196.267v153.6c0 46.933-17.067 89.6-46.933 123.733-25.6 25.6-59.733 42.667-98.133 42.667v0z" />
<glyph unicode="&#xe968;" glyph-name="play-circle" d="M512 938.667c-281.6 0-512-230.4-512-512s230.4-512 512-512 512 230.4 512 512c0 281.6-230.4 512-512 512zM512-17.066c-243.2 0-443.733 200.533-443.733 443.733s200.533 443.733 443.733 443.733 443.733-200.533 443.733-443.733v0c0-243.2-200.533-443.733-443.733-443.733zM682.667 490.667l-234.667 115.2c-34.133 17.067-72.533 4.267-89.6-29.867-8.533-12.8-8.533-21.333-8.533-34.133v-234.667c0-38.4 29.867-68.267 68.267-68.267 12.8 0 21.333 4.267 29.867 8.533l234.667 115.2c34.133 17.067 46.933 59.733 29.867 93.867-4.267 17.067-17.067 25.6-29.867 34.133zM418.133 311.467v230.4l234.667-115.2-234.667-115.2z" />
<glyph unicode="&#xe969;" glyph-name="play" d="M977.067 465.067c-8.533 12.8-17.067 21.333-29.867 29.867l-793.6 435.2c-25.6 12.8-55.467 12.8-76.8 0-25.6-17.067-38.4-42.667-38.4-68.267v-870.4c0-42.667 34.133-76.8 76.8-76.8 12.8 0 25.6 4.267 38.4 8.533l793.6 435.2c34.133 21.333 51.2 68.267 29.867 106.667zM115.2-8.533v870.4l793.6-435.2-793.6-435.2z" />
<glyph unicode="&#xe96a;" glyph-name="reduce" d="M968.533 507.734c0 0 0 0 0 0 0-21.333-17.067-38.4-38.4-38.4h-836.267c-21.333 0-38.4 17.067-38.4 38.4s4.267 38.4 25.6 38.4h388.267l-98.133 93.867c-4.267 4.267-8.533 17.067-8.533 25.6s4.267 21.333 12.8 25.6 38.4 17.067 55.467 0l46.933-46.933v230.4c0 64 76.8 106.667 76.8 0v-226.133l38.4 46.933c12.8 12.8 38.4 12.8 55.467 0s17.067-38.4 0-55.467l-93.867-93.867h366.933c17.067 0 46.933-17.067 46.933-38.4zM55.467 349.867c0 0 0 0 0 0 0 21.333 17.067 38.4 38.4 38.4h836.267c21.333 0 38.4-17.067 38.4-38.4s-4.267-38.4-25.6-38.4h-388.267l93.867-93.867c8.533-8.533 12.8-17.067 12.8-25.6s-4.267-21.333-12.8-25.6-38.4-17.067-55.467 0l-46.933 46.933v-226.133c0-64-76.8-106.667-76.8 0v226.133l-38.4-46.933c-12.8-12.8-38.4-12.8-55.467 0s-17.067 38.4 0 55.467l93.867 93.867h-362.667c-21.333-4.267-51.2 12.8-51.2 34.133z" />
</font>
</defs>
</svg>
